BitTorrentTracker PerecTracker.org
BitTorrentTracker PerecTracker.org
    
Регистрация  ·  Вход
 
 · 
Забыли пароль?

  • Справжній детектив (Сезон 1) / True Detective (Season 1) (Кері Фукунага, Джон Краулі, Джастін Лін) [2014 р., детектив, кримінал, трилер, драма, BDRip] MVO (НТН) Ukr + Original

    Ответить на тему
     
    Автор Сообщение

    older

    Создавать темы 18-Окт-2015 09:27

           

    [Цитировать]

    Справжній детектив (Сезон 1) / True Detective (Season 1)
    Рік випуску: 2014
    Країна: США
    Кіностудія / кінокомпанія: Anonymous Content, Lee Caplin / Picture Entertainment, Passenger
    Жанр: детектив, кримінал, трилер, драма
    Тривалість: 1 серія: 59 хвилин (цілком серій: 8)
    Субтитри: відсутні
    Переклад: багатоголосий, закадровий (професійний) - НТН
    Оригінальна аудіодоріжка: українська, англійська-Режисер: Кері Фукунага, Джон Краулі, Джастін Лін
    Продюсер: Річард Браун, Лі Кеплін, Кері Фукунага
    Сценарій: Нік Піццолатто, Scott Lasser, Аманда Овертон-Світова прем'єра: 12 січня 2014
    Обмеження за віком: 18+- -Актори: Меттью МакКонахі, Вуді Харрельсон, Мішель Монахен, Майкл Поттс, Торі Кіттлз, Брюс Елліотт, Медісон Вульф, Рендал Гонсалес, Девід Стівен Мітчелл, Ерік Прайс-Сюжет: Головні герої — два детективи. У 2012 році в штаті Луізіана повторно відкривається справа про серійне вбивство в 1995 році. Детективи познайомилися 17 років тому, коли почалося розслідування, і з тих пір разом полювали за кілером. Оповідання буде вестися як у наш час, так і відкотиться назад, у середину дев'яностих.-Формат: AVI
    Якість: WEB-DLRip
    Відео кодек: XviD
    Відео: 720x400 (16:9), 1512 kbps, 23.976 fps, 0.217 bit/pixel
    Аудіо 1: AC3, 48 kHz, 2 ch, 192 kbps - телеканал: НТН
    Аудіо 2: AC3, 48 kHz, 2 ch, 192 kbps - Original-Джерело: Джерело:

    MediaInfo

    Общее
    Полное имя                               : \True.Detective.s01.BDRip.Ukr.Eng\True.Detective.s01e01.BDRip.Ukr.Eng.avi
    Формат                                   : AVI
    Формат/Информация                        : Audio Video Interleave
    Размер файла                             : 811 Мбайт
    Продолжительность                        : 59 м.
    Общий поток                              : 1896 Кбит/сек
    Тема                                     : True Detective. Season 1, Episode 1. The Long Bright Dark
    Программа кодирования                    : VirtualDubMod 1.5.10.2 (build 2540/release)
    Библиотека кодирования                   : VirtualDubMod build 2540/release
    Видео
    Идентификатор                            : 0
    Формат                                   : MPEG-4 Visual
    Профиль формата                          : Advanced Simple@L5
    Параметр BVOP формата                    : 2
    Параметр QPel формата                    : Нет
    Параметр GMC формата                     : Без точки перехода
    Параметр матрицы формата                 : Default (H.263)
    Идентификатор кодека                     : XVID
    Идентификатор кодека/Подсказка           : XviD
    Продолжительность                        : 59 м.
    Битрейт                                  : 1498 Кбит/сек
    Ширина                                   : 720 пикселей
    Высота                                   : 400 пикселей
    Соотношение сторон                       : 16:9
    Частота кадров                           : 23,976 кадра/сек
    Цветовое пространство                    : YUV
    Субдискретизация насыщенности            : 4:2:0
    Битовая глубина                          : 8 бит
    Тип развёртки                            : Прогрессивная
    Метод сжатия                             : С потерями
    Бит/(Пиксели*Кадры)                      : 0.217
    Размер потока                            : 640 Мбайт (79%)
    Библиотека кодирования                   : XviD 73
    Аудио #1
    Идентификатор                            : 1
    Формат                                   : AC-3
    Формат/Информация                        : Audio Coding 3
    Расширение режима                        : CM (complete main)
    Параметр Endianness формата              : Big
    Идентификатор кодека                     : 2000
    Продолжительность                        : 59 м.
    Вид битрейта                             : Постоянный
    Битрейт                                  : 192 Кбит/сек
    Каналы                                   : 2 канала
    Расположение каналов                     : Front: L R
    Частота                                  : 48,0 КГц
    Битовая глубина                          : 16 бит
    Метод сжатия                             : С потерями
    Размер потока                            : 82,1 Мбайт (10%)
    Выравнивание                             : Разделение по промежуткам
    Продолжительность промежутка             : 42  мс. (1,00 видеокадр)
    Время предзагрузки промежутка            : 500  мс.
    Заголовок                                : Ukrainian
    Аудио #2
    Идентификатор                            : 2
    Формат                                   : AC-3
    Формат/Информация                        : Audio Coding 3
    Расширение режима                        : CM (complete main)
    Параметр Endianness формата              : Big
    Идентификатор кодека                     : 2000
    Продолжительность                        : 59 м.
    Вид битрейта                             : Постоянный
    Битрейт                                  : 192 Кбит/сек
    Каналы                                   : 2 канала
    Расположение каналов                     : Front: L R
    Частота                                  : 48,0 КГц
    Битовая глубина                          : 16 бит
    Метод сжатия                             : С потерями
    Размер потока                            : 82,1 Мбайт (10%)
    Выравнивание                             : Разделение по промежуткам
    Продолжительность промежутка             : 42  мс. (1,00 видеокадр)
    Время предзагрузки промежутка            : 500  мс.
    Заголовок                                : English

    Скріншоти

    Перелік серій

    True Detective. Season 1, Episode 1. The Long Bright Dark
    True Detective. Season 1, Episode 2. Seeing Things
    True Detective. Season 1, Episode 3. The Locked Room
    True Detective. Season 1, Episode 4. Who Goes There
    True Detective. Season 1, Episode 5. The Secret Fate of All Life
    True Detective. Season 1, Episode 6. Haunted Houses
    True Detective. Season 1, Episode 7. After You've Gone
    True Detective. Season 1, Episode 8. Form and Void
    Скачать .torrent

    Скачать торрент-файл бесплатно и на максимальной скорости!

    Как скачивать? · Что такое торрент? · Рейтинг и ограничения

    !ВНИМАНИЕ!
    Сайт не распространяет и не хранит электронные версии произведений, а занимается лишь лишь предоставлением доступа к создаваемому пользователями каталогу ссылок на торрент-файлы, которые содержат только списки хеш-сумм, убедительная просьба с жалобами обращаться напрямую к пользователю. Файлы для обмена на трекере предоставлены пользователями сайта, и администрация не несёт ответственности за их содержание. Просьба не заливать файлы, защищенные авторскими правами, а также файлы нелегального содержания!


    _________________
    [Профиль] [ЛС]
    Показать сообщения:    
    Ответить на тему

    Текущее время: Сегодня, в 11:02

    Часовой пояс: GMT + 2



    Вы не можете начинать темы
    Вы не можете отвечать на сообщения
    Вы не можете редактировать свои сообщения
    Вы не можете удалять свои сообщения
    Вы не можете голосовать в опросах
    Вы не можете прикреплять файлы к сообщениям
    Вы не можете скачивать файлы