BitTorrentTracker PerecTracker.org
BitTorrentTracker PerecTracker.org
    
Регистрация  ·  Вход
 
 · 
Забыли пароль?

  • Друзі (Сезон 1-10) / Friends (Seasons 1-10) (Гарі Хелворсон, Кевін Брайт, Майкл Лембек) [1994-2004 р., комедія, мелодрама, BDRip] DVO (1+1) Ukr + Original + Sub Eng

    Ответить на тему
     
    Автор Сообщение

    older

    Создавать темы 18-Окт-2015 07:30

           

    [Цитировать]

    Друзі (Сезон 1-10) / Friends (Seasons 1-10)
    Рік випуску: 1994-2004
    Країна: США
    Кіностудія / кінокомпанія: Warner Brothers Studios / NBC
    Жанр: комедія, мелодрама
    Тривалість: 1 серія: ~23 хв (цілком серій: 236)
    Субтитри: англійська мова, тип: програмні (м'які), формат: SRT
    Переклад: двоголосий закадровий (на замовлення телеканалу 1+1)
    Оригінальна аудіодоріжка: українська, англійська-Режисер: Гарі Хелворсон, Кевін Брайт, Майкл Лембек
    Продюсер: Кевін Брайт, Девід Крейн, Марта Кауффман
    Сценарій: Девід Крейн, Марта Кауффман, Тед Коен-Світова прем'єра: 22 вересня 1994
    Обмеження за віком: 7 листопада 2006, «Юніверсал Пікчерс Рус»- -Актори: Дженніфер Еністон, Кортні Кокс, Ліза Кудроу, Метт Леблан, Метью Перрі, Девід Швіммер-Сюжет: Cтворена Девідом Крейном і Мартою Кауффман, ця ансамблева комедія стала найпопулярнішою новою комедією ситуацій сезону 1994—1995 рр., займаючи 8 місце в рейтингу Нельсона. Герої — шестеро молодих людей, що живуть в Нью-Йорку і зустрічаються в улюбленому кафе — Central Perk. Шість героїв — три дівчини, і троє молодих людей — нерозлучні друзі. І навколо цієї міцної компанії будується нескінченна кількість різних історій: у друзів трапляються романи, вони сваряться і миряться. Але молодь не може бути до кінця серйозною, так що друзі не упускають випадку пожартувати, а відчуття гумору у них відмінне.-Формат: AVI
    Якість: HDRip (Source: BDRip 720p)
    Відео кодек: XviD
    Відео: 704x400 (16:9), 1876 kbps, 23.976 fps, 0.278 bit/pixel
    Аудіо 1: AC3, 48 kHz, 2 ch, 192 kbps - телеканал: 1+1
    Аудіо 2: AC3, 48 kHz, 2 ch, 192 kbps - Original-Джерело:

    MediaInfo

    Общее
    Полное имя                               : \Friends\Friends_Season01.HDRip.XviD\Friends.s01e01.Ukr.Eng.HDRip.XviD.avi
    Формат                                   : AVI
    Формат/Информация                        : Audio Video Interleave
    Размер файла                             : 371 Мбайт
    Продолжительность                        : 22 м.
    Общий поток                              : 2274 Кбит/сек
    Название фильма                          : Friends s01e01 - Pilot
    Тема                                     : Rip by sv [Source 720p Hurtom]
    Программа кодирования                    : VirtualDubMod 1.5.10.2 (build 2542/release)
    Библиотека кодирования                   : VirtualDubMod build 2542/release
    Видео
    Идентификатор                            : 0
    Формат                                   : MPEG-4 Visual
    Профиль формата                          : Advanced Simple@L5
    Параметр BVOP формата                    : 2
    Параметр QPel формата                    : Нет
    Параметр GMC формата                     : Без точки перехода
    Параметр матрицы формата                 : Default (MPEG)
    Идентификатор кодека                     : XVID
    Идентификатор кодека/Подсказка           : XviD
    Продолжительность                        : 22 м.
    Битрейт                                  : 1876 Кбит/сек
    Ширина                                   : 704 пикселя
    Высота                                   : 400 пикселей
    Соотношение сторон                       : 16:9
    Частота кадров                           : 23,976 кадра/сек
    Цветовое пространство                    : YUV
    Субдискретизация насыщенности            : 4:2:0
    Битовая глубина                          : 8 бит
    Тип развёртки                            : Прогрессивная
    Метод сжатия                             : С потерями
    Бит/(Пиксели*Кадры)                      : 0.278
    Размер потока                            : 306 Мбайт (82%)
    Библиотека кодирования                   : XviD 65
    Аудио #1
    Идентификатор                            : 1
    Формат                                   : AC-3
    Формат/Информация                        : Audio Coding 3
    Расширение режима                        : CM (complete main)
    Параметр Endianness формата              : Big
    Идентификатор кодека                     : 2000
    Продолжительность                        : 22 м.
    Вид битрейта                             : Постоянный
    Битрейт                                  : 192 Кбит/сек
    Каналы                                   : 2 канала
    Расположение каналов                     : Front: L R
    Частота                                  : 48,0 КГц
    Битовая глубина                          : 16 бит
    Метод сжатия                             : С потерями
    Размер потока                            : 31,3 Мбайт (8%)
    Выравнивание                             : Разделение по промежуткам
    Продолжительность промежутка             : 42  мс. (1,00 видеокадр)
    Время предзагрузки промежутка            : 500  мс.
    Аудио #2
    Идентификатор                            : 2
    Формат                                   : AC-3
    Формат/Информация                        : Audio Coding 3
    Расширение режима                        : CM (complete main)
    Параметр Endianness формата              : Big
    Идентификатор кодека                     : 2000
    Продолжительность                        : 22 м.
    Вид битрейта                             : Постоянный
    Битрейт                                  : 192 Кбит/сек
    Каналы                                   : 2 канала
    Расположение каналов                     : Front: L R
    Частота                                  : 48,0 КГц
    Битовая глубина                          : 16 бит
    Метод сжатия                             : С потерями
    Размер потока                            : 31,3 Мбайт (8%)
    Выравнивание                             : Разделение по промежуткам
    Продолжительность промежутка             : 42  мс. (1,00 видеокадр)
    Время предзагрузки промежутка            : 500  мс.

    Скріншоти

    Скачать .torrent

    Скачать торрент-файл бесплатно и на максимальной скорости!

    Как скачивать? · Что такое торрент? · Рейтинг и ограничения

    !ВНИМАНИЕ!
    Сайт не распространяет и не хранит электронные версии произведений, а занимается лишь лишь предоставлением доступа к создаваемому пользователями каталогу ссылок на торрент-файлы, которые содержат только списки хеш-сумм, убедительная просьба с жалобами обращаться напрямую к пользователю. Файлы для обмена на трекере предоставлены пользователями сайта, и администрация не несёт ответственности за их содержание. Просьба не заливать файлы, защищенные авторскими правами, а также файлы нелегального содержания!


    _________________
    [Профиль] [ЛС]
    Показать сообщения:    
    Ответить на тему

    Текущее время: Сегодня, в 18:22

    Часовой пояс: GMT + 2



    Вы не можете начинать темы
    Вы не можете отвечать на сообщения
    Вы не можете редактировать свои сообщения
    Вы не можете удалять свои сообщения
    Вы не можете голосовать в опросах
    Вы не можете прикреплять файлы к сообщениям
    Вы не можете скачивать файлы