BitTorrentTracker PerecTracker.org
BitTorrentTracker PerecTracker.org
    
Регистрация  ·  Вход
 
 · 
Забыли пароль?

  • Білий птах з чорною ознакою (Юрій Іллєнко) [1970 р., драма, DVDRip] Ukr

    Ответить на тему
     
    Автор Сообщение

    older

    Создавать темы 18-Окт-2015 06:14

           

    [Цитировать]

    Білий птах з чорною ознакою
    Рік випуску: 1970
    Країна: Україна
    Кіностудія / кінокомпанія: кіностудія ім. О.Довженка
    Жанр: драма
    Тривалість: 01:32:50
    Субтитри: відсутні
    Оригінальна аудіодоріжка: українська-Режисер: Юрій Іллєнко
    Сценарій: Юрій Іллєнко, Іван Миколайчук-Світова прем'єра: 17 січня 1972
    Реліз на DVD: 26 лютого 2009, «Мьюзік-Трейд»
    Обмеження за віком: 12+- -Актори: Іван Миколайчук, Богдан Ступка, Лариса Кадочникова, Лариса Кадочникова, Юрій Миколайчук, Наталя Наум, Джемма Фірсова, Олександр Плотніков, Василь Симчич, Олег Полствин, Михайло Іллєнко-Сюжет: У центрі розповіді - бідна й багатодітна буковинська родина. Розійшлися шляхи синів Леся Звонаря: старший іде до Червоної Армії, середній - в ліс, до УПА, молодший - залишається осторонь. Але не раз зустрінуться вони і не раз перетнуться їх долі - то в коханні, то в горах зі зброєю в руках. Події фільму відбуваються у 1937-47 р.
    Цій видатній кінострічці, зробленій в часи жорстокої цензури, судилася важка доля: незважаючи на те, що фільм здобув Золотий приз Московського міжнародного кінофестивалю в 1971 році та відбіркову премію "Срібні сирени" на кінофестивалю в Сорренто (Італія) в 1972 році, вона була фактично заборонена - пильні совєтські ідеологи сприйняли її як мало не випад ворожих націоналістичних сил.-Формат: AVI
    Якість: DVDRip
    Відео кодек: XviD
    Відео: 720x540 (4:3), 1411 kbps, 25,000 fps, 0.145 bit/pixel
    Аудіо: AC3, 44,1 kHz, 2 ch, 192 kbps-Джерело:

    MediaInfo

    Общее
    Полное имя                               : \Білий птах з чорною ознакою.avi
    Формат                                   : AVI
    Формат/Информация                        : Audio Video Interleave
    Профиль формата                          : OpenDML
    Размер файла                             : 1,04 Гбайт
    Продолжительность                        : 1 ч. 32 м.
    Общий поток                              : 1606 Кбит/сек
    Видео
    Идентификатор                            : 0
    Формат                                   : MPEG-4 Visual
    Профиль формата                          : Advanced Simple@L5
    Параметр BVOP формата                    : 2
    Параметр QPel формата                    : Нет
    Параметр GMC формата                     : Без точки перехода
    Параметр матрицы формата                 : Default (H.263)
    Режим смешивания                         : Сжатый битовый поток
    Идентификатор кодека                     : XVID
    Идентификатор кодека/Подсказка           : XviD
    Продолжительность                        : 1 ч. 32 м.
    Битрейт                                  : 1411 Кбит/сек
    Ширина                                   : 720 пикселей
    Высота                                   : 540 пикселей
    Соотношение сторон                       : 4:3
    Частота кадров                           : 25,000 кадров/сек
    Цветовое пространство                    : YUV
    Субдискретизация насыщенности            : 4:2:0
    Битовая глубина                          : 8 бит
    Тип развёртки                            : Прогрессивная
    Метод сжатия                             : С потерями
    Бит/(Пиксели*Кадры)                      : 0.145
    Размер потока                            : 937 Мбайт (88%)
    Библиотека кодирования                   : XviD 1.1.2 (UTC 2006-11-01)
    Аудио
    Идентификатор                            : 1
    Формат                                   : AC-3
    Формат/Информация                        : Audio Coding 3
    Расширение режима                        : CM (complete main)
    Параметр Endianness формата              : Big
    Идентификатор кодека                     : 2000
    Продолжительность                        : 1 ч. 32 м.
    Вид битрейта                             : Постоянный
    Битрейт                                  : 192 Кбит/сек
    Каналы                                   : 2 канала
    Расположение каналов                     : Front: L R
    Частота                                  : 44,1 КГц
    Битовая глубина                          : 16 бит
    Метод сжатия                             : С потерями
    Размер потока                            : 127 Мбайт (12%)
    Выравнивание                             : Соединение по промежуткам
    Продолжительность промежутка             : 1000  мс. (25,00 видеокадров)

    Скріншоти

    Скачать .torrent

    Скачать торрент-файл бесплатно и на максимальной скорости!

    Как скачивать? · Что такое торрент? · Рейтинг и ограничения

    !ВНИМАНИЕ!
    Сайт не распространяет и не хранит электронные версии произведений, а занимается лишь лишь предоставлением доступа к создаваемому пользователями каталогу ссылок на торрент-файлы, которые содержат только списки хеш-сумм, убедительная просьба с жалобами обращаться напрямую к пользователю. Файлы для обмена на трекере предоставлены пользователями сайта, и администрация не несёт ответственности за их содержание. Просьба не заливать файлы, защищенные авторскими правами, а также файлы нелегального содержания!


    _________________
    [Профиль] [ЛС]
    Показать сообщения:    
    Ответить на тему

    Текущее время: Сегодня, в 16:28

    Часовой пояс: GMT + 2



    Вы не можете начинать темы
    Вы не можете отвечать на сообщения
    Вы не можете редактировать свои сообщения
    Вы не можете удалять свои сообщения
    Вы не можете голосовать в опросах
    Вы не можете прикреплять файлы к сообщениям
    Вы не можете скачивать файлы