BitTorrentTracker PerecTracker.org
BitTorrentTracker PerecTracker.org
    
Регистрация  ·  Вход
 
 · 
Забыли пароль?

  • [iPad] Сельма / Selma (Ава ДюВерней / Ava DuVernay ) [2014, США, Драма, биография, история, HDRip, SD (576p)] MVO + Original + sub (rus, eng)

    Ответить на тему
     
    Автор Сообщение

    rechyn

    Создавать темы 17-Окт-2015 21:51

           

    [Цитировать]

    Сельма / Selma
    «One dream can change the world»
    6.993 / 10 7.50 / 10
    -Год выпуска: 2014
    Страна: США
    Жанр: Драма, биография, история
    Продолжительность: 02:08:16
    Перевод: Профессиональный (многоголосый закадровый)
    Оригинальная аудиодорожка: Есть
    Cубтитры: Русские, Английские
    Режиссёр: Ава ДюВерней
    Сценарий: Пол Уэбб
    Продюсер: Кристиан Колсон, Деде Гарднер, Джереми Клейнер
    Оператор: Брэдфорд Янг
    Художник: Марк Фридберг, Ким Дженнингс, Рут Е. Картер
    Монтаж: Спенсер Эверик
    В ролях: Дэвид Ойелоуо, Кармен Эджого, Том Уилкинсон, Тим Рот, Лоррейн Туссен, Коммон, Джованни Рибизи, Рубен Сантьяго-Хадсон, Опра Уинфри, Кьюба Гудинг мл.
    Бюджет: $20 000 000
    Сборы в США: $52 076 908
    Сборы в мире: + $14 711 000 = $66 787 908
    Мировая премьера: 11 ноября 2014
    Описание: Драма о маршах протеста, устроенных знаменитым правозащитником Мартином Лютером Кингом в местечке Сельма, штат Алабама.-Качество исходника: BDRip 1080p
    Качество: HDRip
    Тип: SD (576p)
    Контейнер: M4V
    Видео: H.264, 1024x432, 2.40:1, 2 200 Kbps, 23.976 fps
    Аудио 1: Русский/Профессиональный (многоголосый закадровый) , AAC / 2.0 / 154 Kbps / 48.0 KHz
    Аудио 2: Английский/Оригинальная дорожка , AAC / 2.0 / 147 Kbps / 48.0 KHz
    Субтитры 1: Русские полные
    Субтитры 2: Английские полные
    -

    iTunes Meta Tags

    Sort Name: Selma
    XID: Apple:vendor_id:2014-464607
    contentID: 950562460
    Copyright: © 2014 PATHE PRODUCTIONS LIMITED All Rights Reserved.
    Screenwriters: Пол Уэбб
    Producers: Кристиан Колсон, Деде Гарднер, Джереми Клейнер
    Director: Ава ДюВерней
    Cast: Дэвид Ойелоуо, Кармен Эджого, Том Уилкинсон, Тим Рот, Лоррейн Туссен, Коммон, Джованни Рибизи, Рубен Сантьяго-Хадсон, Опра Уинфри, Кьюба Гудинг мл.
    Studio: Paramount
    Rating: 10
    Long Description: Драма о маршах протеста, устроенных знаменитым правозащитником Мартином Лютером Кингом в местечке Сельма, штат Алабама.
    Description: Драма о маршах протеста, устроенных знаменитым правозащитником Мартином Лютером Кингом в местечке Сельма, штат Алабама.
    Release Date: 2014-11-11T08:00:00Z
    Genre: Drama
    Artist: Ava DuVernay
    Name: Selma

    MediaInfo

    General
    Complete name                            : /Users/alex/HandBrake/Selma.(SD).(pk)..m4v
    Format                                   : MPEG-4
    Codec ID                                 : M4V
    File size                                : 2.25 GiB
    Duration                                 : 2h 8mn
    Overall bit rate mode                    : Variable
    Overall bit rate                         : 2 510 Kbps
    Movie name                               : Selma
    Performer                                : Ava DuVernay
    Genre                                    : Drama
    Recorded date                            : UTC 2014-11-11 08:00:00
    Encoded date                             : UTC 2015-07-14 06:42:33
    Tagged date                              : UTC 2015-07-14 06:43:06
    Copyright                                : © 2014 PATHE PRODUCTIONS LIMITED All Rights Reserved.
    Cover                                    : Yes
    sonm                                     : Selma
    desc                                     : Драма о маршах протеста, устроенных знаменитым правозащитником Мартином Лютером Кингом в местечке Сельма, штат Алабама.
    ldes                                     : Драма о маршах протеста, устроенных знаменитым правозащитником Мартином Лютером Кингом в местечке Сельма, штат Алабама.
    stik                                     : 9
    rtng                                     : 0
    cnID                                     : 950562460
    xid                                      : Apple:vendor_id:2014-464607
    iTunEXTC                                 : mpaa|PG-13|300|
    iTunMOVI                                 : <?xml version=\"1.0\" encoding=\"UTF-8\"?> / <!DOCTYPE plist PUBLIC \"-//Apple//DTD PLIST 1.0//EN\" \"http://anonym.to/?http://www.apple.com/DTDs/PropertyList-1.0.dtd\"> / <plist version=\"1.0\"> / <dict> /  <key>cast</key> /  <array> /   <dict> /    <key>name</key> /    <string>Дэвид Ойелоуо</string> /   </dict> /   <dict> /    <key>name</key> /    <string>Кармен Эджого</string> /   </dict> /   <dict> /    <key>name</key> /    <string>Том Уилкинсон</string> /   </dict> /   <dict> /    <key>name</key> /    <string>Тим Рот</string> /   </dict> /   <dict> /    <key>name</key> /    <string>Лоррейн Туссен</string> /   </dict> /   <dict> /    <key>name</key> /    <string>Коммон</string> /   </dict> /   <dict> /    <key>name</key> /    <string>Джованни Рибизи</string> /   </dict> /   <dict> /    <key>name</key> /    <string>Рубен Сантьяго-Хадсон</string> /   </dict> /   <dict> /    <key>name</key> /    <string>Опра Уинфри</string> /   </dict> /   <dict> /    <key>name</key> /    <string>Кьюба Гудинг мл.</string> /   </dict> /  </array> /  <key>directors</key> /  <array> /   <dict> /    <key>name</key> /    <string>Ава ДюВерней</string> /   </dict> /  </array> /  <key>producers</key> /  <array> /   <dict> /    <key>name</key> /    <string>Кристиан Колсон</string> /   </dict> /   <dict> /    <key>name</key> /    <string>Деде Гарднер</string> /   </dict> /   <dict> /    <key>name</key> /    <string>Джереми Клейнер</string> /   </dict> /  </array> /  <key>screenwriters</key> /  <array> /   <dict> /    <key>name</key> /    <string>Пол Уэбб</string> /   </dict> /  </array> /  <key>studio</key> /  <string>Paramount</string> / </dict> / </plist>
    Video #1
    ID                                       : 1
    Format                                   : AVC
    Format/Info                              : Advanced Video Codec
    Format profile                           : High@L3.1
    Format settings, CABAC                   : Yes
    Format settings, ReFrames                : 9 frames
    Codec ID                                 : avc1
    Codec ID/Info                            : Advanced Video Coding
    Duration                                 : 2h 8mn
    Bit rate mode                            : Variable
    Bit rate                                 : 2 200 Kbps
    Width                                    : 1 024 pixels
    Height                                   : 432 pixels
    Display aspect ratio                     : 2.40:1
    Frame rate mode                          : Variable
    Frame rate                               : 23.976 fps
    Minimum frame rate                       : 23.810 fps
    Maximum frame rate                       : 24.246 fps
    Color space                              : YUV
    Chroma subsampling                       : 4:2:0
    Bit depth                                : 8 bits
    Scan type                                : Progressive
    Bits/(Pixel*Frame)                       : 0.207
    Stream size                              : 1.97 GiB (88%)
    Writing library                          : x264 core 142 r2479 dd79a61
    Encoding settings                        : cabac=1 / ref=9 / deblock=1:0:0 / analyse=0x3:0x113 / me=umh / subme=9 / psy=1 / psy_rd=1.00:0.00 / mixed_ref=1 / me_range=32 / chroma_me=1 / trellis=1 / 8x8dct=1 / cqm=0 / deadzone=21,11 / fast_pskip=1 / chroma_qp_offset=-2 / threads=12 / lookahead_threads=1 / sliced_threads=0 / nr=0 / decimate=1 / interlaced=0 / bluray_compat=0 / constrained_intra=0 / bframes=6 / b_pyramid=2 / b_adapt=2 / b_bias=0 / direct=1 / weightb=1 / open_gop=0 / weightp=2 / keyint=240 / keyint_min=24 / scenecut=40 / intra_refresh=0 / rc_lookahead=40 / rc=2pass / mbtree=1 / bitrate=2200 / ratetol=1.0 / qcomp=0.60 / qpmin=0 / qpmax=69 / qpstep=4 / cplxblur=20.0 / qblur=0.5 / ip_ratio=1.40 / aq=1:1.00
    Language                                 : English
    Encoded date                             : UTC 2015-07-14 06:42:33
    Tagged date                              : UTC 2015-07-14 06:42:54
    Color primaries                          : BT.709-5, BT.1361, IEC 61966-2-4, SMPTE RP177
    Transfer characteristics                 : BT.709-5, BT.1361
    Matrix coefficients                      : BT.709-5, BT.1361, IEC 61966-2-4 709, SMPTE RP177
    Video #2
    ID                                       : 7
    Format                                   : JPEG
    Codec ID                                 : jpeg
    Duration                                 : 2h 8mn
    Bit rate mode                            : Variable
    Bit rate                                 : 425 bps
    Width                                    : 640 pixels
    Height                                   : 270 pixels
    Display aspect ratio                     : 2.40:1
    Frame rate mode                          : Variable
    Frame rate                               : 0.002 fps
    Minimum frame rate                       : 0.001 fps
    Maximum frame rate                       : 0.004 fps
    Color space                              : YUV
    Chroma subsampling                       : 4:2:0
    Bit depth                                : 8 bits
    Compression mode                         : Lossy
    Bits/(Pixel*Frame)                       : 1.230
    Stream size                              : 415 KiB (0%)
    Language                                 : English
    Encoded date                             : UTC 2015-07-14 06:42:58
    Tagged date                              : UTC 2015-07-14 06:42:58
    Audio #1
    ID                                       : 2
    Format                                   : AAC
    Format/Info                              : Advanced Audio Codec
    Format profile                           : LC
    Codec ID                                 : 40
    Duration                                 : 2h 8mn
    Bit rate mode                            : Variable
    Bit rate                                 : 154 Kbps
    Maximum bit rate                         : 242 Kbps
    Channel(s)                               : 2 channels
    Channel positions                        : Front: L R
    Sampling rate                            : 48.0 KHz
    Compression mode                         : Lossy
    Stream size                              : 142 MiB (6%)
    Language                                 : Russian
    Encoded date                             : UTC 2015-07-14 06:42:33
    Tagged date                              : UTC 2015-07-14 06:42:47
    Audio #2
    ID                                       : 3
    Format                                   : AAC
    Format/Info                              : Advanced Audio Codec
    Format profile                           : LC
    Codec ID                                 : 40
    Duration                                 : 2h 8mn
    Bit rate mode                            : Variable
    Bit rate                                 : 147 Kbps
    Maximum bit rate                         : 252 Kbps
    Channel(s)                               : 2 channels
    Channel positions                        : Front: L R
    Sampling rate                            : 48.0 KHz
    Compression mode                         : Lossy
    Stream size                              : 135 MiB (6%)
    Language                                 : English
    Encoded date                             : UTC 2015-07-14 06:42:33
    Tagged date                              : UTC 2015-07-14 06:42:47
    Text #1
    ID                                       : 4
    Format                                   : Timed text
    Muxing mode                              : sbtl
    Codec ID                                 : tx3g
    Duration                                 : 2h 1mn
    Bit rate mode                            : Variable
    Bit rate                                 : 127 bps
    Stream size                              : 113 KiB (0%)
    Language                                 : Russian
    Encoded date                             : UTC 2015-07-14 06:42:33
    Tagged date                              : UTC 2015-07-14 06:42:33
    Text #2
    ID                                       : 5
    Format                                   : Timed text
    Muxing mode                              : sbtl
    Codec ID                                 : tx3g
    Duration                                 : 1h 59mn
    Bit rate mode                            : Variable
    Bit rate                                 : 70 bps
    Stream size                              : 61.5 KiB (0%)
    Language                                 : English
    Encoded date                             : UTC 2015-07-14 06:42:33
    Tagged date                              : UTC 2015-07-14 06:42:33
    Text #3
    ID                                       : 6
    Format                                   : Apple text
    Codec ID                                 : text
    Duration                                 : 2h 8mn
    Bit rate mode                            : Constant
    Bit rate                                 : 0 bps
    Stream size                              : 416 Bytes (0%)
    Language                                 : English
    Encoded date                             : UTC 2015-07-14 06:42:54
    Tagged date                              : UTC 2015-07-14 06:42:54
    Menu
    00:00:00.000                             : 00:00:00.000
    00:09:19.476                             : 00:09:19.392
    00:13:34.355                             : 00:13:34.272
    00:17:25.628                             : 00:17:25.544
    00:25:48.630                             : 00:25:48.547
    00:32:37.080                             : 00:32:36.913
    00:45:28.768                             : 00:45:28.601
    00:56:27.217                             : 00:56:27.134
    01:10:35.481                             : 01:10:35.398
    01:19:50.327                             : 01:19:50.244
    01:25:43.638                             : 01:25:43.555
    01:33:33.608                             : 01:33:33.358
    01:41:50.521                             : 01:41:50.438
    01:48:56.864                             : 01:48:56.780
    01:53:34.599                             : 01:53:34.516
    01:59:54.521                             : 01:59:54.145

    x264 лог

    x264 [info]: frame I:1516  Avg QP: 8.62  size: 88455
    x264 [info]: frame P:40806 Avg QP:11.23  size: 26405
    x264 [info]: frame B:142190 Avg QP:14.07  size:  6362
    x264 [info]: consecutive B-frames:  1.9%  2.2%  7.0% 32.5% 14.2% 26.2% 16.1%
    x264 [info]: mb I  I16..4: 10.3% 67.7% 22.0%
    x264 [info]: mb P  I16..4:  1.3%  8.0%  1.6%  P16..4: 29.4% 26.4% 22.2%  0.0%  0.0%    skip:11.1%
    x264 [info]: mb B  I16..4:  0.1%  0.8%  0.2%  B16..8: 32.3% 13.3%  4.4%  direct: 3.7%  skip:45.4%  L0:44.5% L1:44.0% BI:11.5%
    x264 [info]: 8x8 transform intra:72.9% inter:59.6%
    x264 [info]: coded y,uvDC,uvAC intra: 88.4% 75.1% 64.9% inter: 25.2% 14.9% 5.8%
    x264 [info]: i16 v,h,dc,p: 53% 11% 11% 25%
    x264 [info]: i8 v,h,dc,ddl,ddr,vr,hd,vl,hu: 14% 10% 14%  8% 11% 11% 10% 11% 12%
    x264 [info]: i4 v,h,dc,ddl,ddr,vr,hd,vl,hu: 12%  8%  5%  9% 14% 14% 13% 12% 12%
    x264 [info]: i8c dc,h,v,p: 56% 18% 18%  8%
    x264 [info]: Weighted P-Frames: Y:2.1% UV:1.0%
    x264 [info]: ref P L0: 51.7%  5.9% 16.3%  7.3%  5.5%  4.5%  3.7%  2.5%  2.2%  0.3%  0.0%
    x264 [info]: ref B L0: 73.0% 12.4%  6.2%  2.8%  2.3%  1.8%  1.1%  0.4%
    x264 [info]: ref B L1: 91.8%  8.2%
    x264 [info]: kb/s:2199.82

    Скриншоты

    -

    Релиз подготовлен для просмотра на Apple TV, iPad, iPhone, iPod Touch.
    Для просмотра данного релиза на компьютере с ОС Windows рекомендуется использовать VLC media player
    Скачать .torrent

    Скачать торрент-файл бесплатно и на максимальной скорости!

    Как скачивать? · Что такое торрент? · Рейтинг и ограничения

    !ВНИМАНИЕ!
    Сайт не распространяет и не хранит электронные версии произведений, а занимается лишь лишь предоставлением доступа к создаваемому пользователями каталогу ссылок на торрент-файлы, которые содержат только списки хеш-сумм, убедительная просьба с жалобами обращаться напрямую к пользователю. Файлы для обмена на трекере предоставлены пользователями сайта, и администрация не несёт ответственности за их содержание. Просьба не заливать файлы, защищенные авторскими правами, а также файлы нелегального содержания!


    _________________
    [Профиль] [ЛС]
    Показать сообщения:    
    Ответить на тему

    Текущее время: Сегодня, в 22:31

    Часовой пояс: GMT + 2



    Вы не можете начинать темы
    Вы не можете отвечать на сообщения
    Вы не можете редактировать свои сообщения
    Вы не можете удалять свои сообщения
    Вы не можете голосовать в опросах
    Вы не можете прикреплять файлы к сообщениям
    Вы не можете скачивать файлы