Register  ·  Log in
Forgot password?

  • Улитки под дождём / Shablulim BaGeshem / Snails in the Rain (Ярив Мозер / Yariv Mozer) [2013, Израиль, драма, гей-тема, DVDRip] VO

    Reply to topic
    Author Message


    Post 17-Oct-2015 18:39



    Улитки под дождём / Shablulim BaGeshem / Snails in the Rain
    Страна: Израиль
    Жанр: драма, гей-тема
    Год выпуска: 2013
    Продолжительность: 01:19:03
    Перевод: Одноголосый закадровый
    Cубтитры: нет
    Оригинальная аудиодорожка: нет
    Режиссер: Ярив Мозер / Yariv Mozer
    В ролях: Йоав Реувени, Моран Розенблатт, Ярив Мозер. Ехуда Нахари
    Описание: Тель-Авив, лето 1989. Боаз, молодой и привлекательный студент-лингвист начинает получать анонимные любовные письма от неизвестного ухажера, подчеркивающие сексуальность Боаза. Письма подрывают спокойную жизнь с его любимой девушкой и ставят под вопрос его сексуальную ориентацию.
    Доп. информация: Релиз группы "Мальчики и парни".
    Качество видео: DVDRip
    Формат видео: AVI
    Видео: Xvid 960x536 50.00fps 1505kbps [Video 0]
    Аудио: MPEG Audio Layer 3 44100Hz stereo 128kbps [Audio 1]


    Complete name : D:\downloads\Улитки под дождём_2013.avi
    Format : AVI
    Format/Info : Audio Video Interleave
    File size : 933 MiB
    Duration : 1h 19mn
    Overall bit rate : 1 651 Kbps
    Writing application : Lavf55.19.104
    ID : 0
    Format : MPEG-4 Visual
    Format profile : Advanced Simple@L5
    Format settings, BVOP : 1
    Format settings, QPel : No
    Format settings, GMC : No warppoints
    Format settings, Matrix : Default (H.263)
    Muxing mode : Packed bitstream
    Codec ID : XVID
    Codec ID/Hint : XviD
    Duration : 1h 19mn
    Bit rate : 1 506 Kbps
    Width : 960 pixels
    Height : 536 pixels
    Display aspect ratio : 16:9
    Frame rate : 50.000 fps
    Original frame rate : 25.000 fps
    Color space : YUV
    Chroma subsampling : 4:2:0
    Bit depth : 8 bits
    Scan type : Progressive
    Compression mode : Lossy
    Bits/(Pixel*Frame) : 0.059
    Stream size : 851 MiB (91%)
    Writing library : XviD 64
    ID : 1
    Format : MPEG Audio
    Format version : Version 1
    Format profile : Layer 3
    Codec ID : 55
    Codec ID/Hint : MP3
    Duration : 1h 19mn
    Bit rate mode : Constant
    Bit rate : 128 Kbps
    Channel(s) : 2 channels
    Sampling rate : 44.1 KHz
    Compression mode : Lossy
    Delay relative to video : 91ms
    Stream size : 72.4 MiB (8%)
    Alignment : Aligned on interleaves
    Interleave, duration : 26 ms (1.31 video frame)


    Download .torrent

    Download free and at maximum speed!

    How to Download? · What is a torrent? · Ratings and Limitations

    The site does not extend and does not store electronic(digital) versions of products, and only gives access to a reference catalogue created by users on torrent-files which contain only lists of the hash-sums, the earnest entreaty, with complaints(abuse) to access directly to the user. Files for an exchange on tracker are given by users of a site, and the administration does not bear the responsibility for their maintenance. The request to not fill in the files protected by copyrights, and also files of the illegal maintenance!

    [Profile] [PM]
    Display posts from previous:    
    Reply to topic

    The time now is: Today 06:40

    All times are GMT + 3 Hours

    You cannot post new topics in this forum
    You cannot reply to topics in this forum
    You cannot edit your posts in this forum
    You cannot delete your posts in this forum
    You cannot vote in polls in this forum
    You cannot attach files in this forum
    You cannot download files in this forum