BitTorrentTracker PerecTracker.org
BitTorrentTracker PerecTracker.org
    
Регистрация  ·  Вход
 
 · 
Забыли пароль?

  • Мамай (Олесь Санін) [2003 р., драма, DVDRip] Ukr

    Ответить на тему
     
    Автор Сообщение

    older

    Создавать темы 17-Окт-2015 10:47

           

    [Цитировать]

    Мамай
    Рік випуску: 2003
    Країна: Україна
    Жанр: драма
    Тривалість: 01:15:09
    Субтитри: відсутні
    Оригінальна аудіодоріжка: українська-Режисер: Олесь Санін
    Продюсер: Ганна Чміль, Арам Геворкян, Сергій Недзельський
    Сценарій: Олесь Санін-Світова прем'єра: 19 лютого 2003
    Прем'єра в Україні: 19 лютого 2003- -Актори: Вікторія Спесівцева, Андрій Білоус, Сергій Романюк, Ахтем Сейтблаєв, Ельдар Акімов, Еміль Расілов, Лесь Сердюк, Андрій Середа-Сюжет: Авторська інтерпретація долі леґендарного українського фольклорного персонажа — козака Мамая, що ґрунтується на українському і кримсько-татарському епосах.-Формат: AVI
    Якість: DVDRip
    Відео кодек: XviD
    Відео: 576x352 (16:10), 1159 kbps, 25,000 fps, 0.229 bit/pixel
    Аудіо: 48,0 kHz, MPEG Layer 3, 2 ch, 128.00 kbps-Джерело:

    MediaInfo

    Общее
    Полное имя                               : \Mamay (2003) DVDRip.avi
    Формат                                   : AVI
    Формат/Информация                        : Audio Video Interleave
    Размер файла                             : 697 Мбайт
    Продолжительность                        : 1 ч. 15 м.
    Общий поток                              : 1297 Кбит/сек
    Программа кодирования                    : VirtualDubMod 1.5.10.2 (build 2540/release)
    Библиотека кодирования                   : VirtualDubMod build 2540/release
    Видео
    Идентификатор                            : 0
    Формат                                   : MPEG-4 Visual
    Профиль формата                          : Simple@L3
    Параметр BVOP формата                    : 2
    Параметр QPel формата                    : Нет
    Параметр GMC формата                     : Без точки перехода
    Параметр матрицы формата                 : Выборочная
    Режим смешивания                         : Сжатый битовый поток
    Идентификатор кодека                     : XVID
    Идентификатор кодека/Подсказка           : XviD
    Продолжительность                        : 1 ч. 15 м.
    Битрейт                                  : 1159 Кбит/сек
    Ширина                                   : 576 пикселей
    Высота                                   : 352 пикселя
    Соотношение сторон                       : 16:10
    Частота кадров                           : 25,000 кадров/сек
    Цветовое пространство                    : YUV
    Субдискретизация насыщенности            : 4:2:0
    Битовая глубина                          : 8 бит
    Тип развёртки                            : Прогрессивная
    Метод сжатия                             : С потерями
    Бит/(Пиксели*Кадры)                      : 0.229
    Размер потока                            : 623 Мбайт (89%)
    Библиотека кодирования                   : XviD 1.0.3 (UTC 2004-12-20)
    Аудио
    Идентификатор                            : 1
    Формат                                   : MPEG Audio
    Версия формата                           : Version 1
    Профиль формата                          : Layer 3
    Режим                                    : Joint stereo
    Расширение режима                        : MS Stereo
    Идентификатор кодека                     : 55
    Идентификатор кодека/Подсказка           : MP3
    Продолжительность                        : 1 ч. 15 м.
    Вид битрейта                             : Постоянный
    Битрейт                                  : 128 Кбит/сек
    Каналы                                   : 2 канала
    Частота                                  : 48,0 КГц
    Метод сжатия                             : С потерями
    Размер потока                            : 68,8 Мбайт (10%)
    Выравнивание                             : Соединение по промежуткам
    Продолжительность промежутка             : 40  мс. (1,00 видеокадр)
    Время предзагрузки промежутка            : 504  мс.
    Библиотека кодирования                   : LAME3.90.3

    Скріншоти

    Скачать .torrent

    Скачать торрент-файл бесплатно и на максимальной скорости!

    Как скачивать? · Что такое торрент? · Рейтинг и ограничения

    !ВНИМАНИЕ!
    Сайт не распространяет и не хранит электронные версии произведений, а занимается лишь лишь предоставлением доступа к создаваемому пользователями каталогу ссылок на торрент-файлы, которые содержат только списки хеш-сумм, убедительная просьба с жалобами обращаться напрямую к пользователю. Файлы для обмена на трекере предоставлены пользователями сайта, и администрация не несёт ответственности за их содержание. Просьба не заливать файлы, защищенные авторскими правами, а также файлы нелегального содержания!


    _________________
    [Профиль] [ЛС]
    Показать сообщения:    
    Ответить на тему

    Текущее время: Сегодня, в 00:24

    Часовой пояс: GMT + 2



    Вы не можете начинать темы
    Вы не можете отвечать на сообщения
    Вы не можете редактировать свои сообщения
    Вы не можете удалять свои сообщения
    Вы не можете голосовать в опросах
    Вы не можете прикреплять файлы к сообщениям
    Вы не можете скачивать файлы