BitTorrentTracker PerecTracker.org
BitTorrentTracker PerecTracker.org
    
Регистрация  ·  Вход
 
 · 
Забыли пароль?

  • Сафо / Sappho (2008) (Роберт Кромбі) [2008 р., драма, мелодрама, еротика, DVDRip] DAB Ukr

    Ответить на тему
     
    Автор Сообщение

    older

    Создавать темы 17-Окт-2015 09:56

           

    [Цитировать]

    Сафо / Sappho
    Рік випуску: 2008
    Країна: Україна
    Жанр: драма, мелодрама, еротика
    Тривалість: 01:28:17
    Субтитри: відсутні
    Оригінальна аудіодоріжка: українська (дубльований переклад)-Режисер: Роберт Кромбі
    Продюсер: Андрій Новіков, Олександр Швидкий
    Сценарій: Роберт Кромбі-Світова прем'єра: 5 березня 2008
    Прем'єра в Україні: 5 березня 200
    Реліз на Blu-Ray: 14 жовтня 2008, «Лазер-Відео»
    Обмеження за віком: 16+- -Актори: Авалон Баррі, Тодд Солі, Людмила Ширяєва, Богдан Ступка, Еліссаіос Влахос, Вассіліс Псіхоуепоулос, Оксана Осипова, Сергій Козенко, Олександр Леонтарітіс, Анатолій Семенов-Сюжет: "Сафо" - це провокаційна історія про любов та пристрасть, події якої відбуваються у 1920-х роках. На створення фільму автора надихнули любовні поеми поетеси Сафо з острова Лесбос. Фільм про любовний трикутник між парою американським молодят, Сафо і Філом , та дочкою російського археолога, Хеленою. Цей любовний трикутник повторює історію найвідомішої поеми древньогрецької поетеси Сафо про суперечливе сексуальне бажання. Під кінець фільму минуле й сучасне зливаються в одне ціле, штовхаючи нашу головну героїню на вчинок, який повторює легенду древньої поетеси.-Формат: AVI
    Якість: DVDRip
    Відео кодек: XviD
    Відео: 720x400 (16:9), 1760 kbps, 25,000 fps, 0.244 bit/pixel
    Аудіо: AC3, 48 kHz, 6 ch, 448 kbps-Джерело:

    MediaInfo

    Общее
    Полное имя                               : \Saffo.2008.DVDRip.UKR.avi
    Формат                                   : AVI
    Формат/Информация                        : Audio Video Interleave
    Размер файла                             : 1,37 Гбайт
    Продолжительность                        : 1 ч. 28 м.
    Общий поток                              : 2218 Кбит/сек
    Программа кодирования                    : VirtualDubMod 1.5.10.2 (build 2540/release)
    Библиотека кодирования                   : VirtualDubMod build 2540/release
    Видео
    Идентификатор                            : 0
    Формат                                   : MPEG-4 Visual
    Профиль формата                          : Advanced Simple@L5
    Параметр BVOP формата                    : 2
    Параметр QPel формата                    : Нет
    Параметр GMC формата                     : Без точки перехода
    Параметр матрицы формата                 : Default (H.263)
    Идентификатор кодека                     : XVID
    Идентификатор кодека/Подсказка           : XviD
    Продолжительность                        : 1 ч. 28 м.
    Битрейт                                  : 1760 Кбит/сек
    Ширина                                   : 720 пикселей
    Высота                                   : 400 пикселей
    Соотношение сторон                       : 16:9
    Частота кадров                           : 25,000 кадров/сек
    Цветовое пространство                    : YUV
    Субдискретизация насыщенности            : 4:2:0
    Битовая глубина                          : 8 бит
    Тип развёртки                            : Прогрессивная
    Метод сжатия                             : С потерями
    Бит/(Пиксели*Кадры)                      : 0.244
    Размер потока                            : 1,09 Гбайт (79%)
    Библиотека кодирования                   : XviD 1.2.0.dev47 (UTC 2006-11-01)
    Аудио
    Идентификатор                            : 1
    Формат                                   : AC-3
    Формат/Информация                        : Audio Coding 3
    Расширение режима                        : CM (complete main)
    Параметр Endianness формата              : Big
    Идентификатор кодека                     : 2000
    Продолжительность                        : 1 ч. 28 м.
    Вид битрейта                             : Постоянный
    Битрейт                                  : 448 Кбит/сек
    Каналы                                   : 6 каналов
    Расположение каналов                     : Front: L C R, Side: L R, LFE
    Частота                                  : 48,0 КГц
    Битовая глубина                          : 16 бит
    Метод сжатия                             : С потерями
    Размер потока                            : 283 Мбайт (20%)
    Выравнивание                             : Разделение по промежуткам
    Продолжительность промежутка             : 40  мс. (1,00 видеокадр)
    Время предзагрузки промежутка            : 500  мс.

    Скріншоти

    Скачать .torrent

    Скачать торрент-файл бесплатно и на максимальной скорости!

    Как скачивать? · Что такое торрент? · Рейтинг и ограничения

    !ВНИМАНИЕ!
    Сайт не распространяет и не хранит электронные версии произведений, а занимается лишь лишь предоставлением доступа к создаваемому пользователями каталогу ссылок на торрент-файлы, которые содержат только списки хеш-сумм, убедительная просьба с жалобами обращаться напрямую к пользователю. Файлы для обмена на трекере предоставлены пользователями сайта, и администрация не несёт ответственности за их содержание. Просьба не заливать файлы, защищенные авторскими правами, а также файлы нелегального содержания!


    _________________


    Последний раз редактировалось: older (2015-10-17 10:03), всего редактировалось 1 раз
    [Профиль] [ЛС]

    older ®

    Создавать темы 17-Окт-2015 10:21 (спустя 25 минут)

           

    [Цитировать]

    Основний час роздачі: 06:00 - 13:00 UA

    _________________
    [Профиль] [ЛС]
    Показать сообщения:    
    Ответить на тему

    Текущее время: Сегодня, в 07:13

    Часовой пояс: GMT + 2



    Вы не можете начинать темы
    Вы не можете отвечать на сообщения
    Вы не можете редактировать свои сообщения
    Вы не можете удалять свои сообщения
    Вы не можете голосовать в опросах
    Вы не можете прикреплять файлы к сообщениям
    Вы не можете скачивать файлы