BitTorrentTracker PerecTracker.org
BitTorrentTracker PerecTracker.org
    
Регистрация  ·  Вход
 
 · 
Забыли пароль?

  • Танго смерті (Олександр Муратов) [1991 р., драма, мелодрама, SATRip] Original

    Ответить на тему
     
    Автор Сообщение

    older

    Создавать темы 17-Окт-2015 09:08

           

    [Цитировать]

    Танго смерті
    Рік випуску: 1991
    Країна: Україна
    Кіностудія / кінокомпанія: Національно-культурний виробничий центр ''Рось''
    Жанр: драма, мелодрама
    Тривалість: 1:21:28
    Субтитри: відсутні
    Оригінальна аудіодоріжка: українська-Режисер: Олександр Муратов
    Сценарій: Олександр Муратов-Прем'єра в Україні: 1 лютого 1992- -Актори: Ірина Малишева, Володимир Литвинов, Вікторія Корсун, Віктор Степанов, Ганна Левченко, Антон Фридлянд, Борис Молодан, Володимир Ямненко, Ігор Стариков-Сюжет: а твором Миколи Хвильового ''Повість про санаторійну зону''. Про політичні репресії 20-х років в Україні, розчарування революційної інтелігенції в комуністичних ідеалах.-Формат: AVI
    Якість: SATRip
    Відео кодек: DivX 5
    Відео: 528x384 (1,375), 1056 kbps, 25,000 fps, 0.208 bit/pixel
    Аудіо: 44,1 kHz, MPEG Layer 2, 2 ch, 128.00 kbps-Джерело:

    MediaInfo

    Общее
    Полное имя                               : \Tango.Smerti.avi
    Формат                                   : AVI
    Формат/Информация                        : Audio Video Interleave
    Размер файла                             : 700 Мбайт
    Продолжительность                        : 1 ч. 21 м.
    Режим общего битрейта                    : Переменный
    Общий поток                              : 1202 Кбит/сек
    Видео
    Идентификатор                            : 0
    Формат                                   : MPEG-4 Visual
    Параметр BVOP формата                    : 1
    Параметр QPel формата                    : Нет
    Параметр GMC формата                     : Без точки перехода
    Параметр матрицы формата                 : Default (H.263)
    Режим смешивания                         : Сжатый битовый поток
    Идентификатор кодека                     : DX50
    Идентификатор кодека/Подсказка           : DivX 5
    Продолжительность                        : 1 ч. 21 м.
    Битрейт                                  : 1056 Кбит/сек
    Ширина                                   : 528 пикселей
    Высота                                   : 384 пикселя
    Соотношение сторон                       : 1,375
    Частота кадров                           : 25,000 кадров/сек
    Цветовое пространство                    : YUV
    Субдискретизация насыщенности            : 4:2:0
    Битовая глубина                          : 8 бит
    Тип развёртки                            : Прогрессивная
    Метод сжатия                             : С потерями
    Бит/(Пиксели*Кадры)                      : 0.208
    Размер потока                            : 615 Мбайт (88%)
    Заголовок                                : Video
    Библиотека кодирования                   : DivX 5.2.1 Alpha (UTC 2004-09-08)
    Аудио
    Идентификатор                            : 1
    Формат                                   : MPEG Audio
    Версия формата                           : Version 1
    Профиль формата                          : Layer 3
    Режим                                    : Joint stereo
    Расширение режима                        : MS Stereo
    Идентификатор кодека                     : 55
    Идентификатор кодека/Подсказка           : MP3
    Продолжительность                        : 1 ч. 21 м.
    Вид битрейта                             : Переменный
    Битрейт                                  : 128 Кбит/сек
    Каналы                                   : 2 канала
    Частота                                  : 44,1 КГц
    Метод сжатия                             : С потерями
    Размер потока                            : 77,7 Мбайт (11%)
    Выравнивание                             : Соединение по промежуткам
    Продолжительность промежутка             : 26  мс. (0,65 видеокадр)
    Время предзагрузки промежутка            : 452  мс.
    Заголовок                                : Audio

    Скріншоти

    Скачать .torrent

    Скачать торрент-файл бесплатно и на максимальной скорости!

    Как скачивать? · Что такое торрент? · Рейтинг и ограничения

    !ВНИМАНИЕ!
    Сайт не распространяет и не хранит электронные версии произведений, а занимается лишь лишь предоставлением доступа к создаваемому пользователями каталогу ссылок на торрент-файлы, которые содержат только списки хеш-сумм, убедительная просьба с жалобами обращаться напрямую к пользователю. Файлы для обмена на трекере предоставлены пользователями сайта, и администрация не несёт ответственности за их содержание. Просьба не заливать файлы, защищенные авторскими правами, а также файлы нелегального содержания!


    _________________


    Последний раз редактировалось: older (2015-10-17 10:18), всего редактировалось 1 раз
    [Профиль] [ЛС]

    older ®

    Создавать темы 17-Окт-2015 09:13 (спустя 4 минуты)

           

    [Цитировать]

    Якщо у когось є краща якість, поділіться. Або, скажіть де взяти.

    _________________
    [Профиль] [ЛС]
    Показать сообщения:    
    Ответить на тему

    Текущее время: Сегодня, в 20:03

    Часовой пояс: GMT + 2



    Вы не можете начинать темы
    Вы не можете отвечать на сообщения
    Вы не можете редактировать свои сообщения
    Вы не можете удалять свои сообщения
    Вы не можете голосовать в опросах
    Вы не можете прикреплять файлы к сообщениям
    Вы не можете скачивать файлы