BitTorrentTracker PerecTracker.org
BitTorrentTracker PerecTracker.org
    
Регистрация  ·  Вход
 
 · 
Забыли пароль?

  • Ватиканские записи / The Vatican Tapes (Марк Невелдайн / Mark Neveldine) [2015, США, ужасы, триллер, HDRip-AVC] VO + Eng sub

    Ответить на тему
     
    Автор Сообщение

    rechyn

    Создавать темы 17-Окт-2015 00:51

           

    [Цитировать]

    Ватиканские записи / The Vatican TapesСтрана: США
    Год выпуска: 2015
    Жанр: триллер, ужасы
    Продолжительность: 01:30:52
    Перевод: Любительский (одноголосый закадровый) Хихидок
    Субтитры: английские
    Режиссер: Марк Невелдайн / Mark Neveldine
    В ролях: Кэтлин Робертсон, Майкл Пенья, Элисон Ломан, Джимон Хонсу, Дугрей Скотт, Майкл Паре, Джон Патрик Амедори, Оливия Тейлор Дадли, Темина Санни, Дэниэл Бернхард
    Описание: Анжела Холмс жила обычной жизнью, пока внезапно не начала оказывать разрушительное воздействие на окружающих, причиняя людям серьезные, иногда смертельные травмы. Местный священник, отец Лозано, уверен в ее одержимости. Приглашенные для проведения сеанса экзорцизма кардиналы из Ватикана сталкиваются с древней сатанинской силой, большей, чем они могли себе представить.
    http://multi-up.com/1071561
    Качество: HDRip-AVC
    Формат MKV
    Video: AVC, 1822 Кбит/сек, 1024 x 576 (1.778), 23.976 fps
    Audio : AC-3, 448 Кбит/сек, 6 каналов, 48,0 КГц

    МИ

    Формат : Matroska
    Версия формата : Version 4 / Version 2
    Размер файла : 1,44 Гбайт
    Продолжительность : 1 ч. 30 м.
    Общий поток : 2268 Кбит/сек
    Название фильма : The Vatican Tapes (2015)
    Дата кодирования : UTC 2015-10-16 17:51:49
    Программа кодирования : mkvmerge v7.9.0 ('Birds') 64bit
    Библиотека кодирования : libebml v1.3.1 + libmatroska v1.4.2
    DURATION : 01:19:22.844000000
    NUMBER_OF_FRAMES : 875
    NUMBER_OF_BYTES : 28765
    _STATISTICS_WRITING_APP : mkvmerge v7.9.0 ('Birds') 64bit
    _STATISTICS_WRITING_DATE_UTC : 2015-10-16 17:51:49
    Видео
    Идентификатор : 1
    Формат : AVC
    Формат/Информация : Advanced Video Codec
    Профиль формата : High@L4.1
    Параметр CABAC формата : Да
    Параметр ReFrames формата : 10 кадров
    Идентификатор кодека : V_MPEG4/ISO/AVC
    Продолжительность : 1 ч. 30 м.
    Битрейт : 1822 Кбит/сек
    Ширина : 1024 пикселя
    Высота : 576 пикселей
    Соотношение сторон : 16:9
    Режим частоты кадров : Постоянный
    Частота кадров : 23,976 кадра/сек
    Цветовое пространство : YUV
    Субдискретизация насыщенности : 4:2:0
    Битовая глубина : 8 бит
    Тип развёртки : Прогрессивная
    Бит/(Пиксели*Кадры) : 0.129
    Размер потока : 1,13 Гбайт (78%)
    Библиотека кодирования : x264 core 133 r2334 a3ac64b
    Настройки программы : cabac=1 / ref=10 / deblock=1:-2:-2 / analyse=0x3:0x113 / me=umh / subme=10 / psy=1 / psy_rd=1.05:0.15 / mixed_ref=1 / me_range=32 / chroma_me=1 / trellis=2 / 8x8dct=1 / cqm=0 / deadzone=21,11 / fast_pskip=0 / chroma_qp_offset=-3 / threads=12 / lookahead_threads=2 / sliced_threads=0 / nr=0 / decimate=0 / interlaced=0 / bluray_compat=0 / constrained_intra=0 / bframes=8 / b_pyramid=2 / b_adapt=2 / b_bias=0 / direct=3 / weightb=1 / open_gop=0 / weightp=2 / keyint=240 / keyint_min=23 / scenecut=40 / intra_refresh=0 / rc_lookahead=40 / rc=2pass / mbtree=0 / bitrate=1822 / ratetol=1.0 / qcomp=0.60 / qpmin=0 / qpmax=51 / qpstep=4 / cplxblur=20.0 / qblur=0.5 / vbv_maxrate=50000 / vbv_bufsize=62500 / nal_hrd=none / ip_ratio=1.40 / pb_ratio=1.30 / aq=1:1.00
    Default : Да
    Forced : Нет
    Цветовой диапазон : Limited
    Основные цвета : BT.709
    Характеристики трансфера : BT.709
    Коэффициенты матрицы : BT.709
    DURATION : 01:30:52.280000000
    NUMBER_OF_FRAMES : 130724
    NUMBER_OF_BYTES : 1239448956
    _STATISTICS_WRITING_APP : mkvmerge v7.9.0 ('Birds') 64bit
    _STATISTICS_WRITING_DATE_UTC : 2015-10-16 17:51:49
    _STATISTICS_TAGS : BPS DURATION NUMBER_OF_FRAMES NUMBER_OF_BYTES
    Аудио
    Идентификатор : 2
    Формат : AC-3
    Формат/Информация : Audio Coding 3
    Расширение режима : CM (complete main)
    Параметр Endianness формата : Big
    Идентификатор кодека : A_AC3
    Продолжительность : 1 ч. 30 м.
    Вид битрейта : Постоянный
    Битрейт : 448 Кбит/сек
    Каналы : 6 каналов
    Расположение каналов : Front: L C R, Side: L R, LFE
    Частота : 48,0 КГц
    Метод сжатия : С потерями
    Размер потока : 291 Мбайт (20%)
    Язык : Russian
    Default : Да
    Forced : Нет
    Текст
    Идентификатор : 3
    Формат : UTF-8
    Идентификатор кодека : S_TEXT/UTF8
    Идентификатор кодека/Информация : UTF-8 Plain Text
    Язык : English
    Default : Да
    Forced : Нет
    Меню
    00:00:00.000 : en:00:00:00.000
    00:02:53.173 : en:00:02:53.173
    00:11:38.072 : en:00:11:38.072
    00:18:02.123 : en:00:18:02.123
    00:23:52.347 : en:00:23:52.347
    00:26:37.179 : en:00:26:37.179
    00:32:26.987 : en:00:32:26.987
    00:39:03.424 : en:00:39:03.424
    00:44:56.277 : en:00:44:56.277
    00:49:55.409 : en:00:49:55.409
    00:53:09.686 : en:00:53:09.686
    01:02:46.095 : en:01:02:46.095
    01:07:46.312 : en:01:07:46.312
    01:12:17.917 : en:01:12:17.917
    01:15:41.287 : en:01:15:41.287
    01:18:54.229 : en:01:18:54.229

    Скрины

    Скачать .torrent

    Скачать торрент-файл бесплатно и на максимальной скорости!

    Как скачивать? · Что такое торрент? · Рейтинг и ограничения

    !ВНИМАНИЕ!
    Сайт не распространяет и не хранит электронные версии произведений, а занимается лишь лишь предоставлением доступа к создаваемому пользователями каталогу ссылок на торрент-файлы, которые содержат только списки хеш-сумм, убедительная просьба с жалобами обращаться напрямую к пользователю. Файлы для обмена на трекере предоставлены пользователями сайта, и администрация не несёт ответственности за их содержание. Просьба не заливать файлы, защищенные авторскими правами, а также файлы нелегального содержания!


    _________________
    [Профиль] [ЛС]
    Показать сообщения:    
    Ответить на тему

    Текущее время: Сегодня, в 19:39

    Часовой пояс: GMT + 2



    Вы не можете начинать темы
    Вы не можете отвечать на сообщения
    Вы не можете редактировать свои сообщения
    Вы не можете удалять свои сообщения
    Вы не можете голосовать в опросах
    Вы не можете прикреплять файлы к сообщениям
    Вы не можете скачивать файлы