BitTorrentTracker PerecTracker.org
BitTorrentTracker PerecTracker.org
    
Регистрация  ·  Вход
 
 · 
Забыли пароль?

  • (Eurobeat/Hi-NRG/Dance) VA - Super Eurobeat Vol. 124 - 2002, FLAC (tracks+.cue), lossless

    Ответить на тему
     
    Автор Сообщение

    Columb

    Создавать темы 26-Июл-2013 09:04

           

    [Цитировать]

    VA - Super Eurobeat Vol. 124
    Жанр: Electronic
    Стиль: Eurobeat/Hi-NRG/Dance
    Год выпуска: 2002
    Производитель: Japan
    Битрейт аудио: lossless
    Аудио кодек: FLAC (*.flac)
    Тип рипа: tracks+.cue
    Источник: idforums.net
    Продолжительность: 00:01:12:45-01. Kevin Johnson & Cherry - Happy Phantom (4:05)
    02. Go Go Girls - Speedy Speedy (3:56)
    03. Symbol - Sound Of The Night (4:08)
    04. Virginia Toy - Away From You (3:51)
    05. A-Beat Boys - Get Somebody (4:11)
    06. Kim Loren - The Logical Song (4:09)
    07. Valentina - Wonder (4:06)
    08. Atrium - Feel It (3:58)
    09. D.Essex - Music For Hire (4:05)
    10. Rose - Everytime It's Love (4:02)
    11. Norma Sheffield - Never Forget My Love (4:09)
    12. Lou Grant - Always On My Mind (4:00)
    13. Macho Gang - All My Love Tonight (4:03)
    14. Matt Land - In The Line Of Fire (4:03)
    15. Mako - Shellfire (3:55)
    16. Virginelle - Lucky Tango (3:59)
    17. Madison - Flash In The Night (4:00)
    18. De La Vega - Incredible Love (4:04)-

    Тех. данные

    *.log

    Exact Audio Copy V1.0 beta 3 from 29. August 2011
    EAC extraction logfile from 25. July 2013, 4:02
    VariousArtist / Super Eurobeat 124
    Used drive : PLDS DVD+-RW DL-8A4SH Adapter: 0 ID: 1
    Read mode : Secure
    Utilize accurate stream : Yes
    Defeat audio cache : Yes
    Make use of C2 pointers : No
    Read offset correction : 6
    Overread into Lead-In and Lead-Out : No
    Fill up missing offset samples with silence : Yes
    Delete leading and trailing silent blocks : No
    Null samples used in CRC calculations : Yes
    Used interface : Native Win32 interface for Win NT & 2000
    Gap handling : Appended to previous track
    Used output format : User Defined Encoder
    Selected bitrate : 1024 kBit/s
    Quality : High
    Add ID3 tag : No
    Command line compressor : C:\Program Files (x86)\FLAC\flac.exe
    Additional command line options : -8 -V -T "ARTIST=%artist%" -T "TITLE=%title%" -T "ALBUM=%albumtitle%" -T "DATE=%year%" -T "TRACKNUMBER=%tracknr%" -T "GENRE=%genre%" -T "PERFORMER=%albuminterpret%" -T "COMPOSER=%composer%" %haslyrics%--tag-from-file=LYRICS="%lyricsfile%"%haslyrics% -T "ALBUMARTIST=%albumartist%" -T "DISCNUMBER=%cdnumber%" -T "TOTALDISCS=%totalcds%" -T "TOTALTRACKS=%numtracks%" -T "COMMENT=%comment%" %source% -o %dest%
    TOC of the extracted CD
    Track | Start | Length | Start sector | End sector
    ---------------------------------------------------------
    1 | 0:00.00 | 4:04.57 | 0 | 18356
    2 | 4:04.57 | 3:56.23 | 18357 | 36079
    3 | 8:01.05 | 4:08.30 | 36080 | 54709
    4 | 12:09.35 | 3:50.40 | 54710 | 71999
    5 | 16:00.00 | 4:11.32 | 72000 | 90856
    6 | 20:11.32 | 4:08.60 | 90857 | 109516
    7 | 24:20.17 | 4:05.65 | 109517 | 127956
    8 | 28:26.07 | 3:58.10 | 127957 | 145816
    9 | 32:24.17 | 4:05.30 | 145817 | 164221
    10 | 36:29.47 | 4:02.05 | 164222 | 182376
    11 | 40:31.52 | 4:09.03 | 182377 | 201054
    12 | 44:40.55 | 4:00.37 | 201055 | 219091
    13 | 48:41.17 | 4:02.45 | 219092 | 237286
    14 | 52:43.62 | 4:02.55 | 237287 | 255491
    15 | 56:46.42 | 3:55.15 | 255492 | 273131
    16 | 60:41.57 | 3:58.73 | 273132 | 291054
    17 | 64:40.55 | 4:00.30 | 291055 | 309084
    18 | 68:41.10 | 4:04.22 | 309085 | 327406
    Track 1
    Filename H:\124\01. Kevin Johnson & Cherry - Happy Phantom.wav
    Pre-gap length 0:00:02.00
    Peak level 100.0 %
    Extraction speed 1.2 X
    Track quality 100.0 %
    Test CRC 16E1B7CA
    Copy CRC 16E1B7CA
    Track not present in AccurateRip database
    Copy OK
    Track 2
    Filename H:\124\02. Go Go Girls - Speedy Speedy.wav
    Pre-gap length 0:00:01.40
    Peak level 100.0 %
    Extraction speed 1.3 X
    Track quality 100.0 %
    Test CRC 06622E8A
    Copy CRC 06622E8A
    Track not present in AccurateRip database
    Copy OK
    Track 3
    Filename H:\124\03. Symbol - Sound Of The Night.wav
    Pre-gap length 0:00:01.86
    Peak level 100.0 %
    Extraction speed 1.4 X
    Track quality 100.0 %
    Test CRC 7BE39B2A
    Copy CRC 7BE39B2A
    Track not present in AccurateRip database
    Copy OK
    Track 4
    Filename H:\124\04. Virginia Toy - Away From You.wav
    Pre-gap length 0:00:01.60
    Peak level 99.9 %
    Extraction speed 1.5 X
    Track quality 100.0 %
    Test CRC 995FBC4D
    Copy CRC 995FBC4D
    Track not present in AccurateRip database
    Copy OK
    Track 5
    Filename H:\124\05. A-Beat Boys - Get Somebody.wav
    Pre-gap length 0:00:01.44
    Peak level 100.0 %
    Extraction speed 1.6 X
    Track quality 100.0 %
    Test CRC 5BD633D2
    Copy CRC 5BD633D2
    Track not present in AccurateRip database
    Copy OK
    Track 6
    Filename H:\124\06. Kim Loren - The Logical Song.wav
    Peak level 100.0 %
    Extraction speed 1.7 X
    Track quality 100.0 %
    Test CRC 61AAA6EC
    Copy CRC 61AAA6EC
    Track not present in AccurateRip database
    Copy OK
    Track 7
    Filename H:\124\07. Valentina - Wonder.wav
    Pre-gap length 0:00:01.66
    Peak level 99.9 %
    Extraction speed 1.8 X
    Track quality 100.0 %
    Test CRC C6FBCA6B
    Copy CRC C6FBCA6B
    Track not present in AccurateRip database
    Copy OK
    Track 8
    Filename H:\124\08. Atrium - Feel It.wav
    Pre-gap length 0:00:01.69
    Peak level 99.9 %
    Extraction speed 1.9 X
    Track quality 100.0 %
    Test CRC F57192B8
    Copy CRC F57192B8
    Track not present in AccurateRip database
    Copy OK
    Track 9
    Filename H:\124\09. D.Essex - Music For Hire.wav
    Pre-gap length 0:00:01.06
    Peak level 100.0 %
    Extraction speed 2.0 X
    Track quality 100.0 %
    Test CRC 8AA31B33
    Copy CRC 8AA31B33
    Track not present in AccurateRip database
    Copy OK
    Track 10
    Filename H:\124\10. Rose - Everytime It's Love.wav
    Pre-gap length 0:00:01.02
    Peak level 100.0 %
    Extraction speed 2.0 X
    Track quality 100.0 %
    Test CRC 7D6517CB
    Copy CRC 7D6517CB
    Track not present in AccurateRip database
    Copy OK
    Track 11
    Filename H:\124\11. Norma Sheffield - Never Forget My Love.wav
    Pre-gap length 0:00:01.62
    Peak level 100.0 %
    Extraction speed 2.1 X
    Track quality 100.0 %
    Test CRC 1A4679D2
    Copy CRC 1A4679D2
    Track not present in AccurateRip database
    Copy OK
    Track 12
    Filename H:\124\12. Lou Grant - Always On My Mind.wav
    Pre-gap length 0:00:01.57
    Peak level 100.0 %
    Extraction speed 2.2 X
    Track quality 100.0 %
    Test CRC 5C7465B6
    Copy CRC 5C7465B6
    Track not present in AccurateRip database
    Copy OK
    Track 13
    Filename H:\124\13. Macho Gang - All My Love Tonight.wav
    Pre-gap length 0:00:01.40
    Peak level 99.9 %
    Extraction speed 2.3 X
    Track quality 100.0 %
    Test CRC 31159AEF
    Copy CRC 31159AEF
    Track not present in AccurateRip database
    Copy OK
    Track 14
    Filename H:\124\14. Matt Land - In The Line Of Fire.wav
    Pre-gap length 0:00:02.33
    Peak level 100.0 %
    Extraction speed 2.3 X
    Track quality 100.0 %
    Test CRC 8F1B510F
    Copy CRC 8F1B510F
    Track not present in AccurateRip database
    Copy OK
    Track 15
    Filename H:\124\15. Mako - Shellfire.wav
    Pre-gap length 0:00:01.42
    Peak level 100.0 %
    Extraction speed 2.4 X
    Track quality 100.0 %
    Test CRC 9D37CBE4
    Copy CRC 9D37CBE4
    Track not present in AccurateRip database
    Copy OK
    Track 16
    Filename H:\124\16. Virginelle - Lucky Tango.wav
    Pre-gap length 0:00:01.62
    Peak level 100.0 %
    Extraction speed 2.5 X
    Track quality 100.0 %
    Test CRC 2C65D2FE
    Copy CRC 2C65D2FE
    Track not present in AccurateRip database
    Copy OK
    Track 17
    Filename H:\124\17. Madison - Flash In The Night.wav
    Pre-gap length 0:00:01.60
    Peak level 100.0 %
    Extraction speed 2.5 X
    Track quality 100.0 %
    Test CRC 214CBB3B
    Copy CRC 214CBB3B
    Track not present in AccurateRip database
    Copy OK
    Track 18
    Filename H:\124\18. De La Vega - Incredible Love.wav
    Pre-gap length 0:00:02.30
    Peak level 100.0 %
    Extraction speed 2.6 X
    Track quality 100.0 %
    Test CRC 224BCBD6
    Copy CRC 224BCBD6
    Track not present in AccurateRip database
    Copy OK
    None of the tracks are present in the AccurateRip database
    No errors occurred
    End of status report
    ---- CUETools DB Plugin V2.1.3
    [CTDB TOCID: l3dkqKyI.4tVeFPSAOh.QZZPhrU-] disk not present in database, Submit result: l3dkqKyI.4tVeFPSAOh.QZZPhrU- has been uploaded
    ==== Log checksum 270EE74FF85C9E4166E19F03C034B2C2C82AECF07D2D86447529CD8506E41FBB ====

    *.cue

    REM GENRE Eurobeat
    REM DATE 2002
    REM DISCID F9110D12
    REM COMMENT "ExactAudioCopy v1.0b3"
    CATALOG 4988064101245
    PERFORMER "VariousArtist"
    TITLE "Super Eurobeat Vol. 124"
    FILE "01. Kevin Johnson & Cherry - Happy Phantom.wav" WAVE
    TRACK 01 AUDIO
    TITLE "Happy Phantom"
    PERFORMER "Kevin Johnson & Cherry"
    INDEX 01 00:00:00
    TRACK 02 AUDIO
    TITLE "Speedy Speedy"
    PERFORMER "Go Go Girls"
    INDEX 00 04:03:27
    FILE "02. Go Go Girls - Speedy Speedy.wav" WAVE
    INDEX 01 00:00:00
    TRACK 03 AUDIO
    TITLE "Sound Of The Night"
    PERFORMER "Symbol"
    INDEX 00 03:54:33
    FILE "03. Symbol - Sound Of The Night.wav" WAVE
    INDEX 01 00:00:00
    TRACK 04 AUDIO
    TITLE "Away From You"
    PERFORMER "Virginia Toy"
    INDEX 00 04:06:60
    FILE "04. Virginia Toy - Away From You.wav" WAVE
    INDEX 01 00:00:00
    TRACK 05 AUDIO
    TITLE "Get Somebody"
    PERFORMER "A-Beat Boys"
    INDEX 00 03:49:07
    FILE "05. A-Beat Boys - Get Somebody.wav" WAVE
    INDEX 01 00:00:00
    FILE "06. Kim Loren - The Logical Song.wav" WAVE
    TRACK 06 AUDIO
    TITLE "The Logical Song"
    PERFORMER "Kim Loren"
    INDEX 01 00:00:00
    TRACK 07 AUDIO
    TITLE "Wonder"
    PERFORMER "Valentina"
    INDEX 00 04:07:10
    FILE "07. Valentina - Wonder.wav" WAVE
    INDEX 01 00:00:00
    TRACK 08 AUDIO
    TITLE "Feel It"
    PERFORMER "Atrium"
    INDEX 00 04:04:13
    FILE "08. Atrium - Feel It.wav" WAVE
    INDEX 01 00:00:00
    TRACK 09 AUDIO
    TITLE "Music For Hire"
    PERFORMER "D.Essex"
    INDEX 00 03:57:05
    FILE "09. D.Essex - Music For Hire.wav" WAVE
    INDEX 01 00:00:00
    TRACK 10 AUDIO
    TITLE "Everytime It's Love"
    PERFORMER "Rose"
    INDEX 00 04:04:28
    FILE "10. Rose - Everytime It's Love.wav" WAVE
    INDEX 01 00:00:00
    TRACK 11 AUDIO
    TITLE "Never Forget My Love"
    PERFORMER "Norma Sheffield"
    INDEX 00 04:00:33
    FILE "11. Norma Sheffield - Never Forget My Love.wav" WAVE
    INDEX 01 00:00:00
    TRACK 12 AUDIO
    TITLE "Always On My Mind"
    PERFORMER "Lou Grant"
    INDEX 00 04:07:35
    FILE "12. Lou Grant - Always On My Mind.wav" WAVE
    INDEX 01 00:00:00
    TRACK 13 AUDIO
    TITLE "All My Love Tonight"
    PERFORMER "Macho Gang"
    INDEX 00 03:59:07
    FILE "13. Macho Gang - All My Love Tonight.wav" WAVE
    INDEX 01 00:00:00
    TRACK 14 AUDIO
    TITLE "In The Line Of Fire"
    PERFORMER "Matt Land"
    INDEX 00 04:00:20
    FILE "14. Matt Land - In The Line Of Fire.wav" WAVE
    INDEX 01 00:00:00
    TRACK 15 AUDIO
    TITLE "Shellfire"
    PERFORMER "Mako"
    INDEX 00 04:01:23
    FILE "15. Mako - Shellfire.wav" WAVE
    INDEX 01 00:00:00
    TRACK 16 AUDIO
    TITLE "Lucky Tango"
    PERFORMER "Virginelle"
    INDEX 00 03:53:43
    FILE "16. Virginelle - Lucky Tango.wav" WAVE
    INDEX 01 00:00:00
    TRACK 17 AUDIO
    TITLE "Flash In The Night"
    PERFORMER "Madison"
    INDEX 00 03:57:28
    FILE "17. Madison - Flash In The Night.wav" WAVE
    INDEX 01 00:00:00
    TRACK 18 AUDIO
    TITLE "Incredible Love"
    PERFORMER "De La Vega"
    INDEX 00 03:58:07
    FILE "18. De La Vega - Incredible Love.wav" WAVE
    INDEX 01 00:00:00

    *.auCDtect

    -----------------------
    DON'T MODIFY THIS FILE
    -----------------------
    PERFORMER: auCDtect Task Manager, ver. 1.5.1RC6 build 1.5.1.7
    Copyright (c) 2008-2010 y-soft. All rights reserved
    http://y-soft.org
    ANALYZER: auCDtect: CD records authenticity detector, version 0.8.2
    Copyright (c) 2004 Oleg Berngardt. All rights reserved.
    Copyright (c) 2004 Alexander Djourik. All rights reserved.
    FILE: 01. Kevin Johnson & Cherry - Happy Phantom.flac
    Size: 35874347 Hash: 1251FD6106117D4D64782D5A0971D9DB Accuracy: -m0
    Conclusion: CDDA 99%
    Signature: 277E3E6623BBEC34DBE94C5053073F2D049BCE7F
    FILE: 02. Go Go Girls - Speedy Speedy.flac
    Size: 33261123 Hash: 1DADF40D08BFE423CAF88AB9A8FB186B Accuracy: -m0
    Conclusion: CDDA 100%
    Signature: FD7DF8EB7F7E66878D33A6113A27CE93BCFF82C2
    FILE: 03. Symbol - Sound Of The Night.flac
    Size: 35425147 Hash: AC6CCD9929B7421F2446F9AF763D5AF6 Accuracy: -m0
    Conclusion: CDDA 100%
    Signature: D8CBB37A361DC5E13C1FC066106CA13379540367
    FILE: 04. Virginia Toy - Away From You.flac
    Size: 34092803 Hash: 2109F3B5DE140B2399FF4EBD4D4991F2 Accuracy: -m0
    Conclusion: CDDA 100%
    Signature: DCC608CC58D9A751208D2ECA4B71DC6A500FE5E8
    FILE: 05. A-Beat Boys - Get Somebody.flac
    Size: 35828498 Hash: A9CD6E2CC89F1F7C9917B91D9BA59530 Accuracy: -m0
    Conclusion: CDDA 100%
    Signature: 773A88452152B703473F26810F049D236043C56E
    FILE: 06. Kim Loren - The Logical Song.flac
    Size: 35733666 Hash: 62B2BA46607CB9C1D50FC82115360C81 Accuracy: -m0
    Conclusion: CDDA 100%
    Signature: 5EDB06109FEEF5029DA189297D44476A80C6B1E1
    FILE: 07. Valentina - Wonder.flac
    Size: 34112526 Hash: 159C27E5076FE8649E95AE1F04BDD2BA Accuracy: -m0
    Conclusion: CDDA 100%
    Signature: 0D8D602438D90BAC42757AC9134969B34E80EB9D
    FILE: 08. Atrium - Feel It.flac
    Size: 33313439 Hash: 87F1245E208E012070B3B9FA163AF065 Accuracy: -m0
    Conclusion: CDDA 100%
    Signature: 6E0736E71F8410CAD4596BC24D05BA89C2B75EA6
    FILE: 09. D.Essex - Music For Hire.flac
    Size: 34289008 Hash: AA834F21E055161A6AFE923C401729DC Accuracy: -m0
    Conclusion: CDDA 100%
    Signature: 1B0B0F4C2DE9294003D9EB6D06C78AAF6C68E7B0
    FILE: 10. Rose - Everytime It's Love.flac
    Size: 34405018 Hash: F6E669B046D25DBF5215C9CD3EB60B7E Accuracy: -m0
    Conclusion: CDDA 100%
    Signature: CC64D3277B1B0DAFAA42A7C203A298C606C9EE25
    FILE: 11. Norma Sheffield - Never Forget My Love.flac
    Size: 36157436 Hash: CAAC21C2F6A06C7E79F79C379A87C565 Accuracy: -m0
    Conclusion: CDDA 100%
    Signature: F6DC39EBE69406854143B788D71ADCA9A95F17BE
    FILE: 12. Lou Grant - Always On My Mind.flac
    Size: 33492503 Hash: C2C65F311E8B014C20C8528633099391 Accuracy: -m0
    Conclusion: CDDA 100%
    Signature: 31F1114A9486BE07C46B5194DC1D715E634D858E
    FILE: 13. Macho Gang - All My Love Tonight.flac
    Size: 34932015 Hash: AEE2124531C75888DB7873CE127449A0 Accuracy: -m0
    Conclusion: CDDA 100%
    Signature: EA26ED75F4792587B1F53219B24B7ADD4C37104B
    FILE: 14. Matt Land - In The Line Of Fire.flac
    Size: 33436098 Hash: A6DB7BA9E7450D9AC2C2CE17D53BC14D Accuracy: -m0
    Conclusion: CDDA 99%
    Signature: 069136A710BCC06AEA8E25D97D76971792D8E766
    FILE: 15. Mako - Shellfire.flac
    Size: 34647954 Hash: 5F78BEDC56E340FA55E572BB75923610 Accuracy: -m0
    Conclusion: CDDA 99%
    Signature: BDB902CF7B32AB4C3DC4CB2277F5F253B9CF0C0D
    FILE: 16. Virginelle - Lucky Tango.flac
    Size: 33616246 Hash: C99D1E36EDC43BC65D46EAB23B5A8B01 Accuracy: -m0
    Conclusion: CDDA 100%
    Signature: 79045642C4B87A5B85373B3A39D9055259BE8B4D
    FILE: 17. Madison - Flash In The Night.flac
    Size: 35731597 Hash: 0A9EC7F21F0DA3253C931699C9B83107 Accuracy: -m0
    Conclusion: CDDA 100%
    Signature: 3E5ADC22391AC5D5FB25E226BBE7290CB6227B8C
    FILE: 18. De La Vega - Incredible Love.flac
    Size: 35105280 Hash: 4BA36E56F174FBA53945F53BC76FA255 Accuracy: -m0
    Conclusion: CDDA 99%
    Signature: BA44F92AE3C0EB3797998927E3E453DAD247CE2F

    *.accurip

    [CUETools log; Date: 25.07.2013 17:01:54; Version: 2.1.4]
    [CTDB TOCID: l3dkqKyI.4tVeFPSAOh.QZZPhrU-] found.
    Track | CTDB Status
    1 | (1/1) Accurately ripped
    2 | (1/1) Accurately ripped
    3 | (1/1) Accurately ripped
    4 | (1/1) Accurately ripped
    5 | (1/1) Accurately ripped
    6 | (1/1) Accurately ripped
    7 | (1/1) Accurately ripped
    8 | (1/1) Accurately ripped
    9 | (1/1) Accurately ripped
    10 | (1/1) Accurately ripped
    11 | (1/1) Accurately ripped
    12 | (1/1) Accurately ripped
    13 | (1/1) Accurately ripped
    14 | (1/1) Accurately ripped
    15 | (1/1) Accurately ripped
    16 | (1/1) Accurately ripped
    17 | (1/1) Accurately ripped
    18 | (1/1) Accurately ripped
    [AccurateRip ID: 002f89eb-0279cfd8-f9110d12] found.
    Track [ CRC | V2 ] Status
    01 [65003e08|2a6dd020] (0+0/0) No match
    02 [0fd466ee|4a799b6f] (0+0/0) No match
    03 [4bd8097a|b91d6837] (0+0/0) No match
    04 [aefce272|a76285f9] (0+0/0) No match
    05 [6df5e4b3|eedaa825] (0+0/0) No match
    06 [d9eed6f4|7340abe4] (0+0/0) No match
    07 [3d1cfd29|f716b0fe] (0+0/0) No match
    08 [edcda687|740c5dcd] (0+0/0) No match
    09 [b4637824|9eeb5477] (0+0/0) No match
    10 [a771cf03|c68118c5] (0+0/0) No match
    11 [e48d88c0|5cdbdffb] (0+0/0) No match
    12 [b5af73e2|cacc0919] (0+0/0) No match
    13 [1f55df6b|e272767e] (0+0/0) No match
    14 [8ac5fb27|a1c296f0] (0+0/0) No match
    15 [6c6d5c65|8a1a0789] (0+0/0) No match
    16 [7986482f|1d1aab31] (0+0/0) No match
    17 [153d10d0|d1c0d9bc] (0+0/0) No match
    18 [3cb96a3d|762d668e] (0+0/0) No match
    Offsetted by -45:
    01 [af2aa970] (0/0) No match (V2 was not tested)
    02 [38cd200c] (0/0) No match (V2 was not tested)
    03 [97b01953] (0/0) No match (V2 was not tested)
    04 [06c3cc35] (0/0) No match (V2 was not tested)
    05 [418d6d63] (0/0) No match (V2 was not tested)
    06 [50681447] (0/0) No match (V2 was not tested)
    07 [caefe087] (0/0) No match (V2 was not tested)
    08 [f183f5f6] (0/0) No match (V2 was not tested)
    09 [13c2ba42] (0/0) No match (V2 was not tested)
    10 [c973cef6] (0/0) No match (V2 was not tested)
    11 [0a2e2539] (0/0) No match (V2 was not tested)
    12 [9b653657] (0/0) No match (V2 was not tested)
    13 [a0bc2a61] (0/0) No match (V2 was not tested)
    14 [11687d73] (0/0) No match (V2 was not tested)
    15 [8ce010ee] (0/0) No match (V2 was not tested)
    16 [de399f1b] (0/0) No match (V2 was not tested)
    17 [90646d2f] (0/0) No match (V2 was not tested)
    18 [880a8c7d] (0/0) No match (V2 was not tested)
    Track Peak [ CRC32 ] [W/O NULL] [ LOG ]
    -- 99,9 [4BE0A44A] [0115BF3F]
    01 99,9 [16E1B7CA] [B0DC59AB] CRC32
    02 99,9 [06622E8A] [CC8185E1] CRC32
    03 99,9 [7BE39B2A] [07C9D50F] CRC32
    04 99,9 [995FBC4D] [85D36B67] CRC32
    05 99,9 [5BD633D2] [78FC4AE0] CRC32
    06 99,9 [61AAA6EC] [39AB05FF] CRC32
    07 99,9 [C6FBCA6B] [F8E65C4A] CRC32
    08 99,9 [F57192B8] [A83DB1B4] CRC32
    09 99,9 [8AA31B33] [07D955EF] CRC32
    10 99,9 [7D6517CB] [36237387] CRC32
    11 99,9 [1A4679D2] [C60A7B9C] CRC32
    12 99,9 [5C7465B6] [59B9D92F] CRC32
    13 99,9 [31159AEF] [F0367A42] CRC32
    14 99,9 [8F1B510F] [23DB498C] CRC32
    15 99,9 [9D37CBE4] [762A6832] CRC32
    16 99,9 [2C65D2FE] [78FDF9D4] CRC32
    17 99,9 [214CBB3B] [83D7822A] CRC32
    18 99,9 [224BCBD6] [447B9A7B] CRC32
    Скачать .torrent

    Скачать торрент-файл бесплатно и на максимальной скорости!

    Как скачивать? · Что такое торрент? · Рейтинг и ограничения

    !ВНИМАНИЕ!
    Сайт не распространяет и не хранит электронные версии произведений, а занимается лишь лишь предоставлением доступа к создаваемому пользователями каталогу ссылок на торрент-файлы, которые содержат только списки хеш-сумм, убедительная просьба с жалобами обращаться напрямую к пользователю. Файлы для обмена на трекере предоставлены пользователями сайта, и администрация не несёт ответственности за их содержание. Просьба не заливать файлы, защищенные авторскими правами, а также файлы нелегального содержания!

    [Профиль] [ЛС]
    Показать сообщения:    
    Ответить на тему

    Текущее время: Сегодня, в 16:05

    Часовой пояс: GMT + 2



    Вы не можете начинать темы
    Вы не можете отвечать на сообщения
    Вы не можете редактировать свои сообщения
    Вы не можете удалять свои сообщения
    Вы не можете голосовать в опросах
    Вы не можете прикреплять файлы к сообщениям
    Вы не можете скачивать файлы