BitTorrentTracker PerecTracker.org
BitTorrentTracker PerecTracker.org
    
Регистрация  ·  Вход
 
 · 
Забыли пароль?

  • Наслаждение или боль / Pleasure or Pain (Залман Кинг / Zalman King) [2013, США, Эротика, триллер, драма, BDRip] VO (PashaUp)

    Ответить на тему
     
    Автор Сообщение

    Light

    Создавать темы 17-Окт-2015 00:51

           

    [Цитировать]

    Наслаждение или боль / Pleasure or Pain-Страна: США
    Жанр: Эротика, триллер, драма
    Год выпуска: 2013
    Продолжительность: 01:39:50-Перевод: Одноголосый закадровый [PashaUp]
    Cубтитры: нет-Режиссер: Залман Кинг / Zalman King-В ролях: Малена Морган, Кристос Василопулос, Кайла Джейн Дейнджер, Эль Александра, Данэль Собирей, Хейден Хокенс, Обри Аддамс, И. Элайджа Бауман, Брайс Бонн, Джейсон Брю-Описание: Фильм о молодом дизайнере украшений, которая впадает в страстный роман с состоятельным риелтором Джеком. Его чувственное обаяние завораживает Викторию. Она вскоре находит себя очарованной Джеком и неумолимо втянутой в мир удовольствий, отказаться от которого она не хочет или скорее всего уже не может. Но не всегда любовь это только наслаждение…-Sample | IMDB | КиноПоиск-Тип релиза: BDRip [исх. Pleasure.or.Pain.2013.1080p.REMUX.BluRay.AVC.DTS.HDMA.5.1-BiTHD]
    Формат видео: AVI-Видео: 592x336 (1.76:1), 23.976 fps, XviD build 50, 906 kbps avg, 0.19 bit/pixel
    Аудио: 48 kHz, MPEG Layer 3, 2 ch, 128.00 kbps avg [Russian_VO]-Релиз группы:
    -

    MediaInfo

    General
    Complete name : D:\Мои релизы\Pleasure or Pain_BDRip_[745]_RG_All_Films.avi
    Format : AVI
    Format/Info : Audio Video Interleave
    File size : 746 MiB
    Duration : 1h 39mn
    Overall bit rate : 1 044 Kbps
    Writing application : VirtualDubMod 1.5.10.3 | www.virtualdub-fr.org || (build 2550/release)
    Writing library : VirtualDubMod build 2550/release
    Video
    ID : 0
    Format : MPEG-4 Visual
    Format profile : Advanced Simple@L5
    Format settings, BVOP : Yes
    Format settings, QPel : No
    Format settings, GMC : No warppoints
    Format settings, Matrix : Custom
    Codec ID : XVID
    Codec ID/Hint : XviD
    Duration : 1h 39mn
    Bit rate : 907 Kbps
    Width : 592 pixels
    Height : 336 pixels
    Display aspect ratio : 16:9
    Frame rate : 23.976 fps
    Color space : YUV
    Chroma subsampling : 4:2:0
    Bit depth : 8 bits
    Scan type : Progressive
    Compression mode : Lossy
    Bits/(Pixel*Frame) : 0.190
    Stream size : 647 MiB (87%)
    Writing library : XviD 1.2.1 (UTC 2008-12-04)
    Audio
    ID : 1
    Format : MPEG Audio
    Format version : Version 1
    Format profile : Layer 3
    Codec ID : 55
    Codec ID/Hint : MP3
    Duration : 1h 39mn
    Bit rate mode : Constant
    Bit rate : 128 Kbps
    Channel(s) : 2 channels
    Sampling rate : 48.0 KHz
    Compression mode : Lossy
    Stream size : 91.4 MiB (12%)
    Alignment : Aligned on interleaves
    Interleave, duration : 42 ms (1.00 video frame)
    Interleave, preload duration : 504 ms
    Writing library : LAME3.98r
    Encoding settings : -m s -V 4 -q 2 -lowpass 17 -b 128

    Скриншоты

    Скачать .torrent

    Скачать торрент-файл бесплатно и на максимальной скорости!

    Как скачивать? · Что такое торрент? · Рейтинг и ограничения

    !ВНИМАНИЕ!
    Сайт не распространяет и не хранит электронные версии произведений, а занимается лишь лишь предоставлением доступа к создаваемому пользователями каталогу ссылок на торрент-файлы, которые содержат только списки хеш-сумм, убедительная просьба с жалобами обращаться напрямую к пользователю. Файлы для обмена на трекере предоставлены пользователями сайта, и администрация не несёт ответственности за их содержание. Просьба не заливать файлы, защищенные авторскими правами, а также файлы нелегального содержания!


    _________________
    [Профиль] [ЛС]
    Показать сообщения:    
    Ответить на тему

    Текущее время: Сегодня, в 06:08

    Часовой пояс: GMT + 2



    Вы не можете начинать темы
    Вы не можете отвечать на сообщения
    Вы не можете редактировать свои сообщения
    Вы не можете удалять свои сообщения
    Вы не можете голосовать в опросах
    Вы не можете прикреплять файлы к сообщениям
    Вы не можете скачивать файлы