Register  ·  Log in
Forgot password?

  • Жапплу / Jappeloup (Кристиан Дюге / Christian Duguay) [2013, Франция, Канада, Драма, спорт, BDRip] MVO

    Reply to topic
    Author Message


    Post 16-Oct-2015 17:27



    Жапплу / Jappeloup-Страна: Франция, Канада
    Жанр: Драма, спорт
    Год выпуска: 2013
    Продолжительность: 02:09:59-Перевод: Профессиональный (многоголосый закадровый)
    Cубтитры: нет-Режиссер: Кристиан Дюге / Christian Duguay-В ролях: Гийом Кане, Марина Хэндс, Даниель Отой, Лу де Лааж, Чеки Карио, Жак Ижлен, Мари Бюнель, Жоэль Дюпюш, Фридерик Эпо, Арно Анриет-Описание: В начале 80-х, оставив многообещающую карьеру адвоката, Пьер Дюран посвятил себя конному спорту. Никто не верит, что ему удастся добиться значительных результатов: его лошадь, Жапплу, слишком мала ростом и обладает непредсказуемым темпераментом…-Sample | IMDB | КиноПоиск-Тип релиза: BDRip [исх. Jappeloup_2013_1080p_FRA_Blu-ray_VC-1_DTS-HD_MA-WiHD]
    Формат видео: AVI-Видео: 720x304 (2.37:1), 24.000 fps, XviD build 50, 1412 kbps avg, 0.27 bit/pixel
    Аудио: 48 kHz, AC3 Dolby Digital, 2/0 (L,R) ch, 192.00 kbps avg [Russian_MVO]-Релиз группы:


    Complete name : D:\Мои релизы\Jappeloup_BDRip_RG_All_Films.avi
    Format : AVI
    Format/Info : Audio Video Interleave
    File size : 1.47 GiB
    Duration : 2h 9mn
    Overall bit rate : 1 614 Kbps
    Writing application : VirtualDubMod | || (build 2550/release)
    Writing library : VirtualDubMod build 2550/release
    ID : 0
    Format : MPEG-4 Visual
    Format profile : Advanced Simple@L5
    Format settings, BVOP : Yes
    Format settings, QPel : No
    Format settings, GMC : No warppoints
    Format settings, Matrix : Custom
    Codec ID : XVID
    Codec ID/Hint : XviD
    Duration : 2h 9mn
    Bit rate : 1 412 Kbps
    Width : 720 pixels
    Height : 304 pixels
    Display aspect ratio : 2.35:1
    Frame rate : 24.000 fps
    Color space : YUV
    Chroma subsampling : 4:2:0
    Bit depth : 8 bits
    Scan type : Progressive
    Compression mode : Lossy
    Bits/(Pixel*Frame) : 0.269
    Stream size : 1.28 GiB (88%)
    Writing library : XviD 1.2.1 (UTC 2008-12-04)
    ID : 1
    Format : AC-3
    Format/Info : Audio Coding 3
    Mode extension : CM (complete main)
    Codec ID : 2000
    Duration : 2h 9mn
    Bit rate mode : Constant
    Bit rate : 192 Kbps
    Channel(s) : 2 channels
    Channel positions : Front: L R
    Sampling rate : 48.0 KHz
    Bit depth : 16 bits
    Compression mode : Lossy
    Stream size : 179 MiB (12%)
    Alignment : Split accross interleaves
    Interleave, duration : 42 ms (1.00 video frame)
    Interleave, preload duration : 500 ms


    -Торрент-файл перезалит 16.10.2015 по причине замены: любительская DVO профессиональная MVO
    Download .torrent

    Download free and at maximum speed!

    How to Download? · What is a torrent? · Ratings and Limitations

    The site does not extend and does not store electronic(digital) versions of products, and only gives access to a reference catalogue created by users on torrent-files which contain only lists of the hash-sums, the earnest entreaty, with complaints(abuse) to access directly to the user. Files for an exchange on tracker are given by users of a site, and the administration does not bear the responsibility for their maintenance. The request to not fill in the files protected by copyrights, and also files of the illegal maintenance!

    [Profile] [PM]
    Display posts from previous:    
    Reply to topic

    The time now is: Today 11:34

    All times are GMT + 3 Hours

    You cannot post new topics in this forum
    You cannot reply to topics in this forum
    You cannot edit your posts in this forum
    You cannot delete your posts in this forum
    You cannot vote in polls in this forum
    You cannot attach files in this forum
    You cannot download files in this forum