BitTorrentTracker PerecTracker.org
BitTorrentTracker PerecTracker.org
    
Регистрация  ·  Вход
 
 · 
Забыли пароль?

  • Жапплу / Jappeloup (Кристиан Дюге / Christian Duguay) [2013, Франция, Канада, Драма, спорт, BDRip] MVO

    Ответить на тему
     
    Автор Сообщение

    Light

    Создавать темы 16-Окт-2015 16:27

           

    [Цитировать]

    Жапплу / Jappeloup-Страна: Франция, Канада
    Жанр: Драма, спорт
    Год выпуска: 2013
    Продолжительность: 02:09:59-Перевод: Профессиональный (многоголосый закадровый)
    Cубтитры: нет-Режиссер: Кристиан Дюге / Christian Duguay-В ролях: Гийом Кане, Марина Хэндс, Даниель Отой, Лу де Лааж, Чеки Карио, Жак Ижлен, Мари Бюнель, Жоэль Дюпюш, Фридерик Эпо, Арно Анриет-Описание: В начале 80-х, оставив многообещающую карьеру адвоката, Пьер Дюран посвятил себя конному спорту. Никто не верит, что ему удастся добиться значительных результатов: его лошадь, Жапплу, слишком мала ростом и обладает непредсказуемым темпераментом…-Sample | IMDB | КиноПоиск-Тип релиза: BDRip [исх. Jappeloup_2013_1080p_FRA_Blu-ray_VC-1_DTS-HD_MA-WiHD]
    Формат видео: AVI-Видео: 720x304 (2.37:1), 24.000 fps, XviD build 50, 1412 kbps avg, 0.27 bit/pixel
    Аудио: 48 kHz, AC3 Dolby Digital, 2/0 (L,R) ch, 192.00 kbps avg [Russian_MVO]-Релиз группы:
    -

    MediaInfo

    General
    Complete name : D:\Мои релизы\Jappeloup_BDRip_RG_All_Films.avi
    Format : AVI
    Format/Info : Audio Video Interleave
    File size : 1.47 GiB
    Duration : 2h 9mn
    Overall bit rate : 1 614 Kbps
    Writing application : VirtualDubMod 1.5.10.3 | www.virtualdub-fr.org || (build 2550/release)
    Writing library : VirtualDubMod build 2550/release
    Video
    ID : 0
    Format : MPEG-4 Visual
    Format profile : Advanced Simple@L5
    Format settings, BVOP : Yes
    Format settings, QPel : No
    Format settings, GMC : No warppoints
    Format settings, Matrix : Custom
    Codec ID : XVID
    Codec ID/Hint : XviD
    Duration : 2h 9mn
    Bit rate : 1 412 Kbps
    Width : 720 pixels
    Height : 304 pixels
    Display aspect ratio : 2.35:1
    Frame rate : 24.000 fps
    Color space : YUV
    Chroma subsampling : 4:2:0
    Bit depth : 8 bits
    Scan type : Progressive
    Compression mode : Lossy
    Bits/(Pixel*Frame) : 0.269
    Stream size : 1.28 GiB (88%)
    Writing library : XviD 1.2.1 (UTC 2008-12-04)
    Audio
    ID : 1
    Format : AC-3
    Format/Info : Audio Coding 3
    Mode extension : CM (complete main)
    Codec ID : 2000
    Duration : 2h 9mn
    Bit rate mode : Constant
    Bit rate : 192 Kbps
    Channel(s) : 2 channels
    Channel positions : Front: L R
    Sampling rate : 48.0 KHz
    Bit depth : 16 bits
    Compression mode : Lossy
    Stream size : 179 MiB (12%)
    Alignment : Split accross interleaves
    Interleave, duration : 42 ms (1.00 video frame)
    Interleave, preload duration : 500 ms

    Скриншоты

    -Торрент-файл перезалит 16.10.2015 по причине замены: любительская DVO профессиональная MVO
    Скачать .torrent

    Скачать торрент-файл бесплатно и на максимальной скорости!

    Как скачивать? · Что такое торрент? · Рейтинг и ограничения

    !ВНИМАНИЕ!
    Сайт не распространяет и не хранит электронные версии произведений, а занимается лишь лишь предоставлением доступа к создаваемому пользователями каталогу ссылок на торрент-файлы, которые содержат только списки хеш-сумм, убедительная просьба с жалобами обращаться напрямую к пользователю. Файлы для обмена на трекере предоставлены пользователями сайта, и администрация не несёт ответственности за их содержание. Просьба не заливать файлы, защищенные авторскими правами, а также файлы нелегального содержания!


    _________________
    [Профиль] [ЛС]
    Показать сообщения:    
    Ответить на тему

    Текущее время: Сегодня, в 04:21

    Часовой пояс: GMT + 2



    Вы не можете начинать темы
    Вы не можете отвечать на сообщения
    Вы не можете редактировать свои сообщения
    Вы не можете удалять свои сообщения
    Вы не можете голосовать в опросах
    Вы не можете прикреплять файлы к сообщениям
    Вы не можете скачивать файлы