BitTorrentTracker PerecTracker.org
BitTorrentTracker PerecTracker.org
    
Регистрация  ·  Вход
 
 · 
Забыли пароль?

  • Доктор Хаус / House M.D. / Сезон 6 (1-21 серії з 21) (Грег Яйтанс, Деран Сарафян, Девід Стрейтон) [2009 р., детектив, драма, HDTVRip, WEB-DLRip] MVO (Ukr)

    Ответить на тему
     
    Автор Сообщение

    older

    Создавать темы 16-Окт-2015 12:15

           

    [Цитировать]

    Доктор Хаус / House M.D. / Сезон 6
    Рік випуску: 2009
    Країна: США
    Жанр: детектив, драма
    Тривалість: ~ 00:43:00 одна серія (цілком серій: 21)
    Субтитри: відсутні
    Оригінальна аудіодоріжка: українська
    Переклад: багатоголосний закадровий-Режисер: Грег Яйтанс, Деран Сарафян, Девід Стрейтон
    Продюсер: Герріт ван дер Меєр, Пол Аттанасіо, Пітер Блейк
    Сценарій: Девід Шор, Пітер Блейк, Лоуренс Каплоу-Світова прем'єра: 16 листопада 2004
    Обмеження за віком: 16+- -Актори: Х'ю Лорі, Роберт Шон Леонард, Франка Потенте, Лін-Мануель Міранда, Меган Доддс, Дерек Річардсон, Кертіс Армстронг, Андрій Лідс, Андре Брогер-Сюжет: На завершення попереднього сезону, Хаус був змушений визнати, що він втратив зв'язок з реальністю і більше не може займатися медициною. Перебуваючи в безвихідній ситуації він пішов у психіатричну клініку. Починаючи двогодинний прем'єрою, дії в якій практично повністю відбуваються всередині психіатричної клініки, Сезон 6 розкриває довгу дорогу Хауса до одужання. Чи зможе він знайти шлях до розсудливості і нормального стану? Чи зможе він залишатися в стороні від роботи, що привела його до психічної нестабільності, але яка також є основою його життя? Чи зможе знаменитий Діагностичний Відділ у Прінстон-Плейнсборо продовжити існування без нього? Як зміняться стосунки Кадді і Хауса зараз, коли їх уявний роман розкрився?-Формат: AVI
    Якість: 1-14 серії - HDTVRip, 15-20 серії - WEB-DLRip
    Відео кодек: XviD
    Аудіо кодек: MP3
    Відео: 624x352 (16:9), 1027 kbps, 25,000 fps, 0.187 bit/pixel
    Аудіо: 48 kHz, MPEG Layer 3, 2 ch, 128.00 kbps - (переклад виконано і озвучено - UAteam)-Джерело:

    Реліз

    Над перекладом шостого сезону працювали: Barmivah, Leben, Semargl, Memphis, Smile, sPYfromFranik, YOUnique, contra_ua, Pirate lady, KINOMAN90
    Редакція: Geronja, blaseL, ua2004

    Скріншоти


    Перелік серій

    6.01 (За FOX 601-02) "Зламаний"/ "Broken" 01:27:32
    6.02 (За FOX 603) "Епічна помилка"/ "Epic Fail" 43:01
    6.03 (За FOX 604) "Тиран"/ "The Tyrant" 43:00
    6.04 (За FOX 605) "Момент карми"/ "Instant Karma" 42:39
    6.05 (За FOX 606) "Хоробре серце"/ "Brave Heart" 42:58
    6.06 (За FOX 607) "Знайомі незнайомці"/ "Known Unknowns" 43:05
    6.07 (За FOX 608) "Командна робота" / "Known Unknown" 43:01
    6.08 (За FOX 609) "Щастя в забутті" / "Ignorance Is Bliss" 43:06
    6.09 (За FOX 610) "Вілсон" / "Wilson" 43:04
    6.10 (За FOX 611) "Під прикриттям" / "The Down Low" 42:53
    6.11 (За FOX 612) "Каяття" / "Remorse" 43:57
    6.12 (За FOX 613) "Скидаючи кайдани" / "Moving the Chains" 43:57
    6.13 (За FOX 614) "Від 5 до 9" / "5 to 9" 44:03
    6.14 (За FOX 615) "Приватні життя" / "Private Lives" 44:05
    6.15 (За FOX 616) "Чорна діра" / "Black Hole" 43:57
    6.16 (За FOX 617) "Ізоляція" / "Lockdown" 44:05
    6.17 (За FOX 618) "Падіння лицаря" / "Knight's Fall" 43:54
    6.18 (За FOX 619) "Відкритий закритий" / "Open and Shut" 43:58
    6.19 (За FOX 620) "Вибір" / "The Choice" 39:22
    6.20 (За FOX 621) "Ноша" / "Baggage" 41:20
    6.21 (За FOX 622) "Допоможіть" / "Help Me" 44:10

    MediaInfo: 1 серія

    Общее
    Полное имя                               : \House_M.D._s6_HDTVRip_Ukr\House.S06E01.HDTVRip.Ukr.uateam.net.avi
    Формат                                   : AVI
    Формат/Информация                        : Audio Video Interleave
    Профиль формата                          : OpenDML
    Настройки формата                        : rec
    Размер файла                             : 686 Мбайт
    Продолжительность                        : 1 ч. 27 м.
    Общий поток                              : 1096 Кбит/сек
    Название фильма                          : UATEAM
    Программа кодирования                    : AVI-Mux GUI 1.17.7, Aug  8 2006  20:59:17
    Видео
    Идентификатор                            : 0
    Формат                                   : MPEG-4 Visual
    Профиль формата                          : Simple@L3
    Параметр BVOP формата                    : Нет
    Параметр QPel формата                    : Нет
    Параметр GMC формата                     : Без точки перехода
    Параметр матрицы формата                 : Default (H.263)
    Идентификатор кодека                     : XVID
    Идентификатор кодека/Подсказка           : XviD
    Продолжительность                        : 1 ч. 27 м.
    Битрейт                                  : 959 Кбит/сек
    Ширина                                   : 624 пикселя
    Высота                                   : 352 пикселя
    Соотношение сторон                       : 16:9
    Частота кадров                           : 23,976 кадра/сек
    Цветовое пространство                    : YUV
    Субдискретизация насыщенности            : 4:2:0
    Битовая глубина                          : 8 бит
    Тип развёртки                            : Прогрессивная
    Метод сжатия                             : С потерями
    Бит/(Пиксели*Кадры)                      : 0.182
    Размер потока                            : 601 Мбайт (88%)
    Библиотека кодирования                   : XviD 1.2.1 (UTC 2008-12-04)
    Аудио
    Идентификатор                            : 1
    Формат                                   : MPEG Audio
    Версия формата                           : Version 1
    Профиль формата                          : Layer 3
    Режим                                    : Joint stereo
    Идентификатор кодека                     : 55
    Идентификатор кодека/Подсказка           : MP3
    Продолжительность                        : 1 ч. 27 м.
    Вид битрейта                             : Постоянный
    Битрейт                                  : 128 Кбит/сек
    Каналы                                   : 2 канала
    Частота                                  : 48,0 КГц
    Метод сжатия                             : С потерями
    Размер потока                            : 80,2 Мбайт (12%)
    Выравнивание                             : Соединение по промежуткам
    Продолжительность промежутка             : 24  мс. (0,58 видеокадр)
    Время предзагрузки промежутка            : 192  мс.
    Заголовок                                : Mixdown (3)

    MediaInfo: 15 серія

    Общее
    Полное имя                               :\House_M.D._s6_HDTVRip_Ukr\House.S06E15.WEB-DLRip.Ukr.uateam.net.avi
    Формат                                   : AVI
    Формат/Информация                        : Audio Video Interleave
    Размер файла                             : 391 Мбайт
    Продолжительность                        : 43 м.
    Общий поток                              : 1244 Кбит/сек
    Программа кодирования                    : MEncoder UNKNOWN-4.2.4
    Библиотека кодирования                   : VirtualDub build 30586/release
    Видео
    Идентификатор                            : 0
    Формат                                   : MPEG-4 Visual
    Профиль формата                          : Simple@L3
    Параметр BVOP формата                    : Нет
    Параметр QPel формата                    : Нет
    Параметр GMC формата                     : Без точки перехода
    Параметр матрицы формата                 : Default (H.263)
    Идентификатор кодека                     : XVID
    Идентификатор кодека/Подсказка           : XviD
    Продолжительность                        : 43 м.
    Битрейт                                  : 1106 Кбит/сек
    Ширина                                   : 624 пикселя
    Высота                                   : 352 пикселя
    Соотношение сторон                       : 16:9
    Частота кадров                           : 23,976 кадра/сек
    Цветовое пространство                    : YUV
    Субдискретизация насыщенности            : 4:2:0
    Битовая глубина                          : 8 бит
    Тип развёртки                            : Прогрессивная
    Метод сжатия                             : С потерями
    Бит/(Пиксели*Кадры)                      : 0.210
    Размер потока                            : 348 Мбайт (89%)
    Библиотека кодирования                   : XviD 1.2.1 (UTC 2008-12-04)
    Аудио
    Идентификатор                            : 1
    Формат                                   : MPEG Audio
    Версия формата                           : Version 1
    Профиль формата                          : Layer 3
    Режим                                    : Joint stereo
    Расширение режима                        : MS Stereo
    Идентификатор кодека                     : 55
    Идентификатор кодека/Подсказка           : MP3
    Продолжительность                        : 43 м.
    Вид битрейта                             : Постоянный
    Битрейт                                  : 128 Кбит/сек
    Каналы                                   : 2 канала
    Частота                                  : 48,0 КГц
    Метод сжатия                             : С потерями
    Размер потока                            : 40,2 Мбайт (10%)
    Выравнивание                             : Разделение по промежуткам
    Продолжительность промежутка             : 42  мс. (1,00 видеокадр)
    Время предзагрузки промежутка            : 500  мс.
    Библиотека кодирования                   : LAME3.98.2
    Скачать .torrent

    Скачать торрент-файл бесплатно и на максимальной скорости!

    Как скачивать? · Что такое торрент? · Рейтинг и ограничения

    !ВНИМАНИЕ!
    Сайт не распространяет и не хранит электронные версии произведений, а занимается лишь лишь предоставлением доступа к создаваемому пользователями каталогу ссылок на торрент-файлы, которые содержат только списки хеш-сумм, убедительная просьба с жалобами обращаться напрямую к пользователю. Файлы для обмена на трекере предоставлены пользователями сайта, и администрация не несёт ответственности за их содержание. Просьба не заливать файлы, защищенные авторскими правами, а также файлы нелегального содержания!


    _________________
    [Профиль] [ЛС]
    Показать сообщения:    
    Ответить на тему

    Текущее время: Сегодня, в 06:59

    Часовой пояс: GMT + 2



    Вы не можете начинать темы
    Вы не можете отвечать на сообщения
    Вы не можете редактировать свои сообщения
    Вы не можете удалять свои сообщения
    Вы не можете голосовать в опросах
    Вы не можете прикреплять файлы к сообщениям
    Вы не можете скачивать файлы