BitTorrentTracker PerecTracker.org
BitTorrentTracker PerecTracker.org
    
Регистрация  ·  Вход
 
 · 
Забыли пароль?

  • Доктор Хаус / House M.D. / Сезон 5 (1-24 серії з 24) (Грег Яйтанс, Деран Сарафян, Девід Стрейтон) [2008-2009 р., детектив, драма, DVDRip] MVO (Ukr)

    Ответить на тему
     
    Автор Сообщение

    older

    Создавать темы 16-Окт-2015 11:40

           

    [Цитировать]

    Доктор Хаус / House M.D. / Сезон 5
    Рік випуску: 2008-2009
    Країна: США
    Жанр: детектив, драма
    Тривалість: ~ 00:41:00 одна серія (цілком серій: 24)
    Субтитри: відсутні
    Оригінальна аудіодоріжка: українська
    Переклад: багатоголосний закадровий-Режисер: Грег Яйтанс, Деран Сарафян, Девід Стрейтон
    Продюсер: Герріт ван дер Меєр, Пол Аттанасіо, Пітер Блейк
    Сценарій: Девід Шор, Пітер Блейк, Лоуренс Каплоу-Світова прем'єра: 16 листопада 2004
    Обмеження за віком: 16+- -Актори: Хью Лорі (Dr. Gregory House), Ліза Едельштайн (Dr. Lisa Cuddy), Омар Еппс (Dr. Eric Foreman), Роберт Шон Леонард (Dr. James Wilson), Джессі Спенсер (Dr. Robert Chase), Дженіфер Моріссон (Dr. Allison Cameron)-Сюжет:Доктор Хаус — блискучий фахівець у галузі захворювань нирок (нефрологія) і інфекційних хвороб, але через деякі особливості його характеру його не можна назвати улюбленцем пацієнтів і колег — він замкнутий, різкий і цинічний, схильний до мізантропії й бунтарства. Він не обтяжує себе дотриманням правил гарного тону й часом здається, що він повністю позбавлений почуття жалю (що, однак, невірно). Найкраще говорить про життєву позицію Хауса цитата доктора Формана: «Він не порушує правила, він їх ігнорує»; а також його улюблене твердження — «Усі брешуть». Як не дивно, саме цей підхід нерідко допомагає йому розібратися у найскладніших і неймовірних випадках, а значить урятувати життя ще одному пацієнтові.
    Його асистенти, молоді й багатообіцяючі лікарі — імунолог Елісон Кемерон (Дженніфер Моррісон), невролог Ерік Форман (Омар Еппс) і реаніматолог Роберт Чейз (Джессі Спенсер) яких сам Хаус звільняє у третьому сезоні. У четвертому сезоні з'являться нові асистенти: Тринадцята (Ремі Хадлі) (Олівія Уайльд), Лоренс Катнер (Кал Пенн) та Кріс Тауб (Пітер Джейкобсон).
    Інші його соратники - доктор Джеймс Уїлсон (Роберт Шон Леонард), онколог й, можливо, єдиний друг Хауса, і доктор Ліза Кадді (Ліза Едельштейн), ендокринолог, а також завідувач лікарні.
    Хаус часто виражає глибоке й укорінене розчарування в людях, але, можливо, його уїдливість пояснюється хронічним болем у нозі (інфаркт чотириглавого м'яза правого стегна), через що він ходить із тростиною. Хаус постійно приймає вікодин від болю в нозі (і має залежність від нього), а також коли якась справа стомлює або дратує його.-Формат: AVI
    Якість: DVDRip
    Відео кодек: XviD
    Аудіо кодек: MP3
    Відео: 624x352 (16:9), 702 kbps, 25,000 fps, 0.128 bit/pixel
    Аудіо: 44,1 kHz, MPEG Layer 3, 2 ch, 128.00 kbps - (озвучка від телеканалу - СТБ)-Джерело:

    Реліз

    Щира подяка користувачу: Mintay

    MediaInfo

    Общее
    Полное имя                               : \House.M.D (Season 5) Ukr\House.M.D.s05e01.ukr.STB.DVDRip.avi
    Формат                                   : AVI
    Формат/Информация                        : Audio Video Interleave
    Размер файла                             : 246 Мбайт
    Продолжительность                        : 41 м.
    Общий поток                              : 840 Кбит/сек
    Программа кодирования                    : VirtualDubMod 1.5.10.2 (build 2540/release)
    Библиотека кодирования                   : VirtualDub-MPEG2 build 23777/release
    Видео
    Идентификатор                            : 0
    Формат                                   : MPEG-4 Visual
    Профиль формата                          : Advanced Simple@L5
    Параметр BVOP формата                    : 2
    Параметр QPel формата                    : Нет
    Параметр GMC формата                     : Без точки перехода
    Параметр матрицы формата                 : Default (H.263)
    Режим смешивания                         : Сжатый битовый поток
    Идентификатор кодека                     : XVID
    Идентификатор кодека/Подсказка           : XviD
    Продолжительность                        : 41 м.
    Битрейт                                  : 702 Кбит/сек
    Ширина                                   : 624 пикселя
    Высота                                   : 352 пикселя
    Соотношение сторон                       : 16:9
    Частота кадров                           : 25,000 кадров/сек
    Частота кадров в оригинале               : 23,976 кадра/сек
    Цветовое пространство                    : YUV
    Субдискретизация насыщенности            : 4:2:0
    Битовая глубина                          : 8 бит
    Тип развёртки                            : Прогрессивная
    Метод сжатия                             : С потерями
    Бит/(Пиксели*Кадры)                      : 0.128
    Размер потока                            : 206 Мбайт (84%)
    Библиотека кодирования                   : XviD 1.2.1 (UTC 2008-12-04)
    Аудио
    Идентификатор                            : 1
    Формат                                   : MPEG Audio
    Версия формата                           : Version 1
    Профиль формата                          : Layer 3
    Режим                                    : Joint stereo
    Расширение режима                        : MS Stereo
    Идентификатор кодека                     : 55
    Идентификатор кодека/Подсказка           : MP3
    Продолжительность                        : 41 м.
    Вид битрейта                             : Постоянный
    Битрейт                                  : 128 Кбит/сек
    Каналы                                   : 2 канала
    Частота                                  : 44,1 КГц
    Метод сжатия                             : С потерями
    Размер потока                            : 37,5 Мбайт (15%)
    Выравнивание                             : Разделение по промежуткам
    Продолжительность промежутка             : 40  мс. (1,00 видеокадр)
    Время предзагрузки промежутка            : 501  мс.

    Скріншоти

    Перелік серій

    1. "Смерть змінює все" - "Dying Changes Everything"
    2. "Не рак" - "Not Cancer"
    3. "Ускладнення" - "Adverse Events"
    4. "Родові мітки" - "Birthmarks"
    5. "Щаслива Тринадцята" - "Lucky Thirteen"
    6. "Джоі" - "Joy"
    7. "Свербіж" - "The Itch"
    8. "Відмова від опіки" - "Emancipation"
    9. "Крайній крок" - "Last Resort"
    10. "Нехай вони з'їдять торт" - "Let Them Eat Cake"
    11. "Радій світу" - "Joy to the World"
    12. "Без болі" - "Painless"
    13. "Доросла дитина" - "Big Baby"
    14. "Найвище благо" - "The Greater Good"
    15. "Невірюючий" - "Unfaithful"
    16. "Хороша сторона" - "The Softer Side"
    17. "Соціальний контракт" - "The Social Contract"
    18. "Киць-киць" - "Here Kitty"
    19. "Закритий" - "Locked In"
    20. "Просте пояснення" - "Simple Explanation"
    21. "Рятівники" - "Saviors"
    22. "Розділений Хаус" - "House Divided"
    23. "Під шкірою" - "Under My Skin"
    24. "Дві сторони медалі" - "Both Sides Now"
    Скачать .torrent

    Скачать торрент-файл бесплатно и на максимальной скорости!

    Как скачивать? · Что такое торрент? · Рейтинг и ограничения

    !ВНИМАНИЕ!
    Сайт не распространяет и не хранит электронные версии произведений, а занимается лишь лишь предоставлением доступа к создаваемому пользователями каталогу ссылок на торрент-файлы, которые содержат только списки хеш-сумм, убедительная просьба с жалобами обращаться напрямую к пользователю. Файлы для обмена на трекере предоставлены пользователями сайта, и администрация не несёт ответственности за их содержание. Просьба не заливать файлы, защищенные авторскими правами, а также файлы нелегального содержания!


    _________________
    [Профиль] [ЛС]
    Показать сообщения:    
    Ответить на тему

    Текущее время: Сегодня, в 16:25

    Часовой пояс: GMT + 2



    Вы не можете начинать темы
    Вы не можете отвечать на сообщения
    Вы не можете редактировать свои сообщения
    Вы не можете удалять свои сообщения
    Вы не можете голосовать в опросах
    Вы не можете прикреплять файлы к сообщениям
    Вы не можете скачивать файлы