BitTorrentTracker PerecTracker.org
BitTorrentTracker PerecTracker.org
    
Регистрация  ·  Вход
 
 · 
Забыли пароль?

  • Доктор Хаус / House M.D. / Сезон 4 (1-16 серії з 16) (Грег Яйтанс, Деран Сарафян, Девід Стрейтон) [2007-2008 р., детектив, драма, HDTVRip] MVO (Ukr)

    Ответить на тему
     
    Автор Сообщение

    older

    Создавать темы 16-Окт-2015 11:15

           

    [Цитировать]

    Доктор Хаус / House M.D. / Сезон 4
    Рік випуску: 2007-2008
    Країна: США
    Жанр: детектив, драма
    Тривалість: ~ 00:41:00 одна серія (цілком серій: 16)
    Субтитри: відсутні
    Оригінальна аудіодоріжка: українська
    Переклад: багатоголосний закадровий-Режисер: Грег Яйтанс, Деран Сарафян, Девід Стрейтон
    Продюсер: Герріт ван дер Меєр, Пол Аттанасіо, Пітер Блейк
    Сценарій: Девід Шор, Пітер Блейк, Лоуренс Каплоу-Світова прем'єра: 16 листопада 2004
    Обмеження за віком: 16+- -Актори: Х'ю Лорі, Ліза Едельштейн, Роберт Шон Леонард, Омар Еппс, Дженніфер Моррісон, Джесі Спенсер, Пітер Джейкобсон, Кал Пенн, Олівія Уайлд-Сюжет: Головний герой серіалу - Доктор Хаус геніальний діагност, але його манера спілкування з пацієнтами, навпаки, досить незвичайна і навіть неможлива. Він не порушує правил, він їх просто ігнорує. Деколи, його поведінку можна назвати непередбачуваною і дивною. Але, є одне але. Лише Доктор Хаус може поставити правильний діагноз людині, від якої відмовилися всі лікарки, і лише він переверне світ, влаштувавши невеликий Апокаліпсис, щоб поставити пацієнта «на ноги».-Формат: AVI
    Якість: HDTVRip
    Відео кодек: XviD
    Аудіо кодек: MP3
    Відео: 624x352 (16:9), 1040 kbps, 25,000 fps, 0.189 bit/pixel
    Аудіо: 48 kHz, MPEG Layer 3, 2 ch, 128.00 kbps - (озвучка від телеканалу - СТБ)-Джерело:

    Реліз

    Щира подяка користувачу: Mintay

    MediaInfo

    Общее
    Полное имя                               : \House.M.D.(Season.4).Ukr\House.M.D.s04e01.ukr.STB.avi
    Формат                                   : AVI
    Формат/Информация                        : Audio Video Interleave
    Размер файла                             : 346 Мбайт
    Продолжительность                        : 41 м.
    Общий поток                              : 1178 Кбит/сек
    Программа кодирования                    : Nandub v1.0rc2
    Библиотека кодирования                   : VirtualDub-MPEG2 build 23777/release
    Видео
    Идентификатор                            : 0
    Формат                                   : MPEG-4 Visual
    Профиль формата                          : Advanced Simple@L5
    Параметр BVOP формата                    : 2
    Параметр QPel формата                    : Нет
    Параметр GMC формата                     : Без точки перехода
    Параметр матрицы формата                 : Default (H.263)
    Режим смешивания                         : Сжатый битовый поток
    Идентификатор кодека                     : XVID
    Идентификатор кодека/Подсказка           : XviD
    Продолжительность                        : 41 м.
    Битрейт                                  : 1040 Кбит/сек
    Ширина                                   : 624 пикселя
    Высота                                   : 352 пикселя
    Соотношение сторон                       : 16:9
    Частота кадров                           : 25,000 кадров/сек
    Частота кадров в оригинале               : 23,976 кадра/сек
    Цветовое пространство                    : YUV
    Субдискретизация насыщенности            : 4:2:0
    Битовая глубина                          : 8 бит
    Тип развёртки                            : Прогрессивная
    Метод сжатия                             : С потерями
    Бит/(Пиксели*Кадры)                      : 0.189
    Размер потока                            : 305 Мбайт (88%)
    Библиотека кодирования                   : XviD 1.1.2 (UTC 2006-11-01)
    Аудио
    Идентификатор                            : 1
    Формат                                   : MPEG Audio
    Версия формата                           : Version 1
    Профиль формата                          : Layer 3
    Режим                                    : Joint stereo
    Расширение режима                        : MS Stereo
    Идентификатор кодека                     : 55
    Идентификатор кодека/Подсказка           : MP3
    Продолжительность                        : 41 м.
    Вид битрейта                             : Постоянный
    Битрейт                                  : 128 Кбит/сек
    Каналы                                   : 2 канала
    Частота                                  : 48,0 КГц
    Метод сжатия                             : С потерями
    Размер потока                            : 37,6 Мбайт (11%)
    Выравнивание                             : Разделение по промежуткам
    Продолжительность промежутка             : 40  мс. (1,00 видеокадр)
    Время предзагрузки промежутка            : 500  мс.

    Скріншоти

    Перелік серій

    серія 1 - "Alone"
    серія 2 - "The Right Stuff"
    серія 3 - "97 Seconds"
    серія 4 - "Guardian Angels"
    серія 5 - "Mirror Mirror"
    серія 6 - "Whatever It Takes"
    серія 7 - "Ugly"
    серія 8 - "You Don't Want to Know"
    серія 9 - "Games"
    серія 10 - "It's a Wonderful Lie"
    серія 11 - "Frozen"
    серія 12 - "Don't Ever Change"
    серія 13 - "No More Mr. Nice Guy"
    серія 14 - "Living the Dream"
    серія 15 - "House's Head"
    серія 16 - "Wilson's Heart"
    Скачать .torrent

    Скачать торрент-файл бесплатно и на максимальной скорости!

    Как скачивать? · Что такое торрент? · Рейтинг и ограничения

    !ВНИМАНИЕ!
    Сайт не распространяет и не хранит электронные версии произведений, а занимается лишь лишь предоставлением доступа к создаваемому пользователями каталогу ссылок на торрент-файлы, которые содержат только списки хеш-сумм, убедительная просьба с жалобами обращаться напрямую к пользователю. Файлы для обмена на трекере предоставлены пользователями сайта, и администрация не несёт ответственности за их содержание. Просьба не заливать файлы, защищенные авторскими правами, а также файлы нелегального содержания!


    _________________
    [Профиль] [ЛС]
    Показать сообщения:    
    Ответить на тему

    Текущее время: Сегодня, в 10:51

    Часовой пояс: GMT + 2



    Вы не можете начинать темы
    Вы не можете отвечать на сообщения
    Вы не можете редактировать свои сообщения
    Вы не можете удалять свои сообщения
    Вы не можете голосовать в опросах
    Вы не можете прикреплять файлы к сообщениям
    Вы не можете скачивать файлы