BitTorrentTracker PerecTracker.org
BitTorrentTracker PerecTracker.org
    
Регистрация  ·  Вход
 
 · 
Забыли пароль?

  • Доктор Хаус / House M.D. / Сезон 3 (1-24 серії з 24) (Грег Яйтанс, Деран Сарафян, Девід Стрейтон) [2006-2007 р., детектив, драма, DVDRip] MVO (Ukr)

    Ответить на тему
     
    Автор Сообщение

    older

    Создавать темы 16-Окт-2015 10:41

           

    [Цитировать]

    Доктор Хаус / House M.D. / Сезон 3
    Рік випуску: 2006-2007
    Країна: США
    Жанр: детектив, драма
    Тривалість: ~ 00:42:00 одна серія (цілком серій: 24)
    Субтитри: відсутні
    Оригінальна аудіодоріжка: українська
    Переклад: багатоголосний закадровий-Режисер: Грег Яйтанс, Деран Сарафян, Девід Стрейтон
    Продюсер: Герріт ван дер Меєр, Пол Аттанасіо, Пітер Блейк
    Сценарій: Девід Шор, Пітер Блейк, Лоуренс Каплоу-Світова прем'єра: 16 листопада 2004
    Обмеження за віком: 16+- -Актори: Х'ю Лорі, Ліза Едельштейн, Роберт Шон Леонард, Омар Еппс, Дженніфер Моррісон, Джесі Спенсер, Пітер Джейкобсон, Кал Пенн, Олівія Уайлд-Сюжет: Головний герой серіалу - Доктор Хаус геніальний діагност, але його манера спілкування з пацієнтами, навпаки, досить незвичайна і навіть неможлива. Він не порушує правил, він їх просто ігнорує. Деколи, його поведінку можна назвати непередбачуваною і дивною. Але, є одне але. Лише Доктор Хаус може поставити правильний діагноз людині, від якої відмовилися всі лікарки, і лише він переверне світ, влаштувавши невеликий Апокаліпсис, щоб поставити пацієнта «на ноги».-Формат: AVI
    Якість: DVDRip
    Відео кодек: XviD
    Аудіо кодек: MP3
    Відео: 656х352 (1 серія) 992 kbps, 23,976 fps, 0.179 bit/pixel / 720х416 (2-12 серії) / 624х352 (13-24 cерії)
    Аудіо: 48 kHz, MPEG Layer 3, 2 ch, 128.00 kbps - (озвучка від телеканалу - СТБ)-Джерело:

    Реліз

    Щира подяка користувачу: Mintay

    Скріншоти



    MediaInfo: 1 серія

    Общее
    Полное имя                               : \House.M.D.(Season.3).Ukr\House.M.D.s03e01.ukr.STB.avi
    Формат                                   : AVI
    Формат/Информация                        : Audio Video Interleave
    Размер файла                             : 346 Мбайт
    Продолжительность                        : 42 м.
    Общий поток                              : 1129 Кбит/сек
    Программа кодирования                    : VirtualDubMod 1.5.10.2 (build 2540/release)
    Библиотека кодирования                   : VirtualDubMod build 2540/release
    Видео
    Идентификатор                            : 0
    Формат                                   : MPEG-4 Visual
    Профиль формата                          : Advanced Simple@L5
    Параметр BVOP формата                    : 2
    Параметр QPel формата                    : Нет
    Параметр GMC формата                     : Без точки перехода
    Параметр матрицы формата                 : Default (H.263)
    Режим смешивания                         : Сжатый битовый поток
    Идентификатор кодека                     : XVID
    Идентификатор кодека/Подсказка           : XviD
    Продолжительность                        : 42 м.
    Битрейт                                  : 992 Кбит/сек
    Ширина                                   : 656 пикселей
    Высота                                   : 352 пикселя
    Соотношение сторон                       : 1,85:1
    Частота кадров                           : 23,976 кадра/сек
    Цветовое пространство                    : YUV
    Субдискретизация насыщенности            : 4:2:0
    Битовая глубина                          : 8 бит
    Тип развёртки                            : Прогрессивная
    Метод сжатия                             : С потерями
    Бит/(Пиксели*Кадры)                      : 0.179
    Размер потока                            : 304 Мбайт (88%)
    Библиотека кодирования                   : XviD 1.2.0.dev47 (UTC 2006-11-01)
    Аудио
    Идентификатор                            : 1
    Формат                                   : MPEG Audio
    Версия формата                           : Version 1
    Профиль формата                          : Layer 3
    Идентификатор кодека                     : 55
    Идентификатор кодека/Подсказка           : MP3
    Продолжительность                        : 42 м.
    Вид битрейта                             : Постоянный
    Битрейт                                  : 128 Кбит/сек
    Каналы                                   : 2 канала
    Частота                                  : 44,1 КГц
    Метод сжатия                             : С потерями
    Размер потока                            : 39,3 Мбайт (11%)
    Выравнивание                             : Разделение по промежуткам
    Продолжительность промежутка             : 42  мс. (1,00 видеокадр)
    Время предзагрузки промежутка            : 500  мс.

    MediaInfo: 2 серія

    Общее
    Полное имя                               : \House.M.D.(Season.3).Ukr\House.M.D.s03e02.ukr.STB.avi
    Формат                                   : AVI
    Формат/Информация                        : Audio Video Interleave
    Размер файла                             : 351 Мбайт
    Продолжительность                        : 41 м.
    Общий поток                              : 1187 Кбит/сек
    Программа кодирования                    : Nandub v1.0rc2
    Библиотека кодирования                   : VirtualDub-MPEG2 build 23777/release
    Видео
    Идентификатор                            : 0
    Формат                                   : MPEG-4 Visual
    Профиль формата                          : Simple@L3
    Параметр BVOP формата                    : 1
    Параметр QPel формата                    : Нет
    Параметр GMC формата                     : Без точки перехода
    Параметр матрицы формата                 : Выборочная
    Идентификатор кодека                     : XVID
    Идентификатор кодека/Подсказка           : XviD
    Продолжительность                        : 41 м.
    Битрейт                                  : 1050 Кбит/сек
    Ширина                                   : 720 пикселей
    Высота                                   : 416 пикселей
    Соотношение сторон                       : 1,731
    Частота кадров                           : 25,000 кадров/сек
    Частота кадров в оригинале               : 23,976 кадра/сек
    Цветовое пространство                    : YUV
    Субдискретизация насыщенности            : 4:2:0
    Битовая глубина                          : 8 бит
    Тип развёртки                            : Прогрессивная
    Метод сжатия                             : С потерями
    Бит/(Пиксели*Кадры)                      : 0.140
    Размер потока                            : 310 Мбайт (88%)
    Библиотека кодирования                   : XviD 1.0.3 (UTC 2004-12-20)
    Аудио
    Идентификатор                            : 1
    Формат                                   : MPEG Audio
    Версия формата                           : Version 1
    Профиль формата                          : Layer 3
    Режим                                    : Joint stereo
    Расширение режима                        : MS Stereo
    Идентификатор кодека                     : 55
    Идентификатор кодека/Подсказка           : MP3
    Продолжительность                        : 41 м.
    Вид битрейта                             : Постоянный
    Битрейт                                  : 128 Кбит/сек
    Каналы                                   : 2 канала
    Частота                                  : 48,0 КГц
    Метод сжатия                             : С потерями
    Размер потока                            : 37,8 Мбайт (11%)
    Выравнивание                             : Разделение по промежуткам
    Продолжительность промежутка             : 40  мс. (1,00 видеокадр)
    Время предзагрузки промежутка            : 500  мс.

    MediaInfo: 13 серія

    Общее
    Полное имя                               : \House.M.D.(Season.3).Ukr\House.M.D.s03e13.ukr.STB.avi
    Формат                                   : AVI
    Формат/Информация                        : Audio Video Interleave
    Размер файла                             : 249 Мбайт
    Продолжительность                        : 40 м.
    Общий поток                              : 864 Кбит/сек
    Программа кодирования                    : Nandub v1.0rc2
    Библиотека кодирования                   : VirtualDub-MPEG2 build 23777/release
    Видео
    Идентификатор                            : 0
    Формат                                   : MPEG-4 Visual
    Профиль формата                          : Advanced Simple@L5
    Параметр BVOP формата                    : 1
    Параметр QPel формата                    : Нет
    Параметр GMC формата                     : Без точки перехода
    Параметр матрицы формата                 : Default (MPEG)
    Режим смешивания                         : Сжатый битовый поток
    Идентификатор кодека                     : XVID
    Идентификатор кодека/Подсказка           : XviD
    Продолжительность                        : 40 м.
    Битрейт                                  : 726 Кбит/сек
    Ширина                                   : 624 пикселя
    Высота                                   : 352 пикселя
    Соотношение сторон                       : 16:9
    Частота кадров                           : 25,000 кадров/сек
    Частота кадров в оригинале               : 23,976 кадра/сек
    Цветовое пространство                    : YUV
    Субдискретизация насыщенности            : 4:2:0
    Битовая глубина                          : 8 бит
    Тип развёртки                            : Прогрессивная
    Метод сжатия                             : С потерями
    Бит/(Пиксели*Кадры)                      : 0.132
    Размер потока                            : 209 Мбайт (84%)
    Библиотека кодирования                   : XviD 1.1.2 (UTC 2006-11-01)
    Аудио
    Идентификатор                            : 1
    Формат                                   : MPEG Audio
    Версия формата                           : Version 1
    Профиль формата                          : Layer 3
    Режим                                    : Joint stereo
    Расширение режима                        : MS Stereo
    Идентификатор кодека                     : 55
    Идентификатор кодека/Подсказка           : MP3
    Продолжительность                        : 40 м.
    Вид битрейта                             : Постоянный
    Битрейт                                  : 128 Кбит/сек
    Каналы                                   : 2 канала
    Частота                                  : 48,0 КГц
    Метод сжатия                             : С потерями
    Размер потока                            : 36,9 Мбайт (15%)
    Выравнивание                             : Разделение по промежуткам
    Продолжительность промежутка             : 40  мс. (1,00 видеокадр)
    Время предзагрузки промежутка            : 500  мс.
    Скачать .torrent

    Скачать торрент-файл бесплатно и на максимальной скорости!

    Как скачивать? · Что такое торрент? · Рейтинг и ограничения

    !ВНИМАНИЕ!
    Сайт не распространяет и не хранит электронные версии произведений, а занимается лишь лишь предоставлением доступа к создаваемому пользователями каталогу ссылок на торрент-файлы, которые содержат только списки хеш-сумм, убедительная просьба с жалобами обращаться напрямую к пользователю. Файлы для обмена на трекере предоставлены пользователями сайта, и администрация не несёт ответственности за их содержание. Просьба не заливать файлы, защищенные авторскими правами, а также файлы нелегального содержания!


    _________________


    Последний раз редактировалось: older (2015-10-19 10:44), всего редактировалось 1 раз
    [Профиль] [ЛС]

    rechyn

    Создавать темы 16-Окт-2015 13:20 (спустя 2 часа 39 минут)

           

    [Цитировать]


    _________________
    [Профиль] [ЛС]
    Показать сообщения:    
    Ответить на тему

    Текущее время: Сегодня, в 18:26

    Часовой пояс: GMT + 2



    Вы не можете начинать темы
    Вы не можете отвечать на сообщения
    Вы не можете редактировать свои сообщения
    Вы не можете удалять свои сообщения
    Вы не можете голосовать в опросах
    Вы не можете прикреплять файлы к сообщениям
    Вы не можете скачивать файлы