BitTorrentTracker PerecTracker.org
BitTorrentTracker PerecTracker.org
    
Регистрация  ·  Вход
 
 · 
Забыли пароль?

  • Доктор Хаус / House M.D. / Сезон 1 (1-22 серії з 22) (Грег Яйтанс, Деран Сарафян, Девід Стрейтон) [2004-2005 р. детектив, драма, DVDRip ] MVO (Ukr) + Original

    Ответить на тему
     
    Автор Сообщение

    older

    Создавать темы 16-Окт-2015 07:50

           

    [Цитировать]

    Доктор Хаус / House M.D. / Сезон 1
    Рік випуску: 2004-2005
    Країна: США
    Жанр: детектив, драма
    Тривалість: ~ 00:44:00 одна серія (цілком серій: 22)
    Субтитри: відсутні
    Оригінальна аудіодоріжка: українська, англійська
    Переклад: багатоголосний закадровий-Режисер: Грег Яйтанс, Деран Сарафян, Девід Стрейтон
    Продюсер: Герріт ван дер Меєр, Пол Аттанасіо, Пітер Блейк
    Сценарій: Девід Шор, Пітер Блейк, Лоуренс Каплоу-Світова прем'єра: 16 листопада 2004
    Обмеження за віком: 16+- -Актори: Hugh Laurie (Хью Лорі), Lisa Edelstein (Ліза Едельштейн), Omar Epps (Омар Еппс), Robert Sean Leonard (Роберт Шон Леонард), Jennifer Morrison (Дженіффер Моррісон), Jesse Spencer (Джесі Спенсер)-Сюжет: Головний герой серіалу - Доктор Хаус геніальний діагност, але його манера спілкування з пацієнтами, навпаки, досить незвичайна і навіть неможлива. Він не порушує правил, він їх просто ігнорує. Деколи, його поведінку можна назвати непередбачуваною і дивною. Але, є одне але. Лише Доктор Хаус може поставити правильний діагноз людині, від якої відмовилися всі лікарки, і лише він переверне світ, влаштувавши невеликий Апокаліпсис, щоб поставити пацієнта «на ноги».-Формат: AVI
    Якість: DVDRip
    Відео кодек: XviD
    Аудіо кодек: MP3
    Відео: 624x352 (16:9), 968 kbps, 23,976 fps, 0.184 bit/pixel
    Аудіо 1: 48 kHz, MPEG Layer 3, 2 ch, 128.00 kbps - (озвучка від телеканалу - СТБ)
    Аудіо 2: 48 kHz, MPEG Layer 3, 2 ch, 128.00 kbps - Original-Джерело:

    Реліз

    Щира подяка користувачу: Mintay

    MediaInfo

    Общее
    Полное имя                               : \1 Сезон\House.M.D.s01e01.DVDRip.Ukr.Eng.avi
    Формат                                   : AVI
    Формат/Информация                        : Audio Video Interleave
    Размер файла                             : 392 Мбайт
    Продолжительность                        : 44 м.
    Режим общего битрейта                    : Переменный
    Общий поток                              : 1244 Кбит/сек
    Программа кодирования                    : VirtualDubMod 1.5.10.2 (build 2540/release)
    Библиотека кодирования                   : VirtualDubMod build 2540/release
    Видео
    Идентификатор                            : 0
    Формат                                   : MPEG-4 Visual
    Профиль формата                          : Advanced Simple@L5
    Параметр BVOP формата                    : 2
    Параметр QPel формата                    : Нет
    Параметр GMC формата                     : Без точки перехода
    Параметр матрицы формата                 : Default (H.263)
    Режим смешивания                         : Сжатый битовый поток
    Идентификатор кодека                     : XVID
    Идентификатор кодека/Подсказка           : XviD
    Продолжительность                        : 44 м.
    Битрейт                                  : 968 Кбит/сек
    Ширина                                   : 624 пикселя
    Высота                                   : 352 пикселя
    Соотношение сторон                       : 16:9
    Частота кадров                           : 23,976 кадра/сек
    Цветовое пространство                    : YUV
    Субдискретизация насыщенности            : 4:2:0
    Битовая глубина                          : 8 бит
    Тип развёртки                            : Прогрессивная
    Метод сжатия                             : С потерями
    Бит/(Пиксели*Кадры)                      : 0.184
    Размер потока                            : 305 Мбайт (78%)
    Библиотека кодирования                   : XviD 1.0.3 (UTC 2004-12-20)
    Аудио #1
    Идентификатор                            : 1
    Формат                                   : MPEG Audio
    Версия формата                           : Version 1
    Профиль формата                          : Layer 3
    Режим                                    : Joint stereo
    Расширение режима                        : MS Stereo
    Идентификатор кодека                     : 55
    Идентификатор кодека/Подсказка           : MP3
    Продолжительность                        : 44 м.
    Вид битрейта                             : Постоянный
    Битрейт                                  : 128 Кбит/сек
    Каналы                                   : 2 канала
    Частота                                  : 48,0 КГц
    Метод сжатия                             : С потерями
    Размер потока                            : 40,3 Мбайт (10%)
    Выравнивание                             : Соединение по промежуткам
    Продолжительность промежутка             : 42  мс. (1,00 видеокадр)
    Время предзагрузки промежутка            : 504  мс.
    Аудио #2
    Идентификатор                            : 2
    Формат                                   : MPEG Audio
    Версия формата                           : Version 1
    Профиль формата                          : Layer 3
    Режим                                    : Joint stereo
    Расширение режима                        : MS Stereo
    Идентификатор кодека                     : 55
    Идентификатор кодека/Подсказка           : MP3
    Продолжительность                        : 44 м.
    Вид битрейта                             : Переменный
    Битрейт                                  : 128 Кбит/сек
    Каналы                                   : 2 канала
    Частота                                  : 48,0 КГц
    Метод сжатия                             : С потерями
    Размер потока                            : 41,4 Мбайт (11%)
    Выравнивание                             : Соединение по промежуткам
    Продолжительность промежутка             : 24  мс. (0,58 видеокадр)
    Время предзагрузки промежутка            : 374  мс.
    Библиотека кодирования                   : LAME3.90.
    Настройки программы                      : -m j -V 4 -q 2 -lowpass 17.6 --abr 128

    Скріншоти

    Перелік серій

    епізод 1 - "Pilot" / "Everybody lies"
    епізод 2 - "Paternity"
    епізод 3 - "Occam's Razor"
    епізод 4 - "Maternity"
    епізод 5 - "Damned If You Do"
    епізод 6 - "The Socratic Method"
    епізод 7 - "Fidelity"
    епізод 8 - "Poison"
    епізод 9 - "DNR"
    епізод 10 - "Histories"
    епізод 11 - "Detox"
    епізод 12 - "Sports Medicine"
    епізод 13 - "Cursed"
    епізод 14 - "Control"
    епізод 15 - "Mob Rules"
    епізод 16 - "Heavy"
    епізод 17 - "Role Model"
    епізод 18 - "Babies & Bathwater"
    епізод 19 - "Kids"
    епізод 20 - "Love Hurts"
    епізод 21 - "Three Stories"
    епізод 22 - "The Honeymoon"
    Скачать .torrent

    Скачать торрент-файл бесплатно и на максимальной скорости!

    Как скачивать? · Что такое торрент? · Рейтинг и ограничения

    !ВНИМАНИЕ!
    Сайт не распространяет и не хранит электронные версии произведений, а занимается лишь лишь предоставлением доступа к создаваемому пользователями каталогу ссылок на торрент-файлы, которые содержат только списки хеш-сумм, убедительная просьба с жалобами обращаться напрямую к пользователю. Файлы для обмена на трекере предоставлены пользователями сайта, и администрация не несёт ответственности за их содержание. Просьба не заливать файлы, защищенные авторскими правами, а также файлы нелегального содержания!


    _________________


    Последний раз редактировалось: older (2015-10-19 10:50), всего редактировалось 3 раз(а)
    [Профиль] [ЛС]

    -sasha2006

    Создавать темы 16-Окт-2015 18:46 (спустя 10 часов)

           

    [Цитировать]


    _________________

    ░▒▓█▀▄▀▄▀▄█▓▒░
    [Профиль] [ЛС]
    Показать сообщения:    
    Ответить на тему

    Текущее время: Сегодня, в 02:29

    Часовой пояс: GMT + 2



    Вы не можете начинать темы
    Вы не можете отвечать на сообщения
    Вы не можете редактировать свои сообщения
    Вы не можете удалять свои сообщения
    Вы не можете голосовать в опросах
    Вы не можете прикреплять файлы к сообщениям
    Вы не можете скачивать файлы