BitTorrentTracker PerecTracker.org
BitTorrentTracker PerecTracker.org
    
Регистрация  ·  Вход
 
 · 
Забыли пароль?

  • Воздух / Air (Кристиан Кантамесса / Christian Cantamessa ) [2014, США, Фантастика, драма, триллер, BDRip, SD (480p)] MVO + Original + sub (rus, eng, ukr)

    Ответить на тему
     
    Автор Сообщение

    rechyn

    Создавать темы 16-Окт-2015 03:51

           

    [Цитировать]

    Воздух / Air
    «Two men. One task. Save humankind»
    4.931 / 10 5.10 / 10
    -Год выпуска: 2014
    Страна: США
    Жанр: Фантастика, драма, триллер
    Продолжительность: 01:34:28
    Перевод: Многоголосый закадровый (R5)
    Оригинальная аудиодорожка: Есть
    Cубтитры: Русские, Английские, Украинские
    Режиссёр: Кристиан Кантамесса
    Сценарий: Кристиан Кантамесса, Chris Pasetto
    Продюсер: Дэвид Элперт, Крис Фергюсон, Брайан Кэвэна-Джонс
    Оператор: Норм Ли
    Художник: Брайан Кэйн, Педро Ромеро, Мила Франович
    Монтаж: Грег ЭнДжи
    В ролях: Норман Ридус, Джимон Хонсу, Сандрин Холт, Питер Бенсон, Стив Бёрджесс, Майкл Хоган, Паула Линдберг, Дэвид Найкл
    Мировая премьера: 14 августа 2015
    Описание: В центре сюжета два человека, герои Ридуса и Хонсу. Атмосфера стала совершенно непригодной для жизни, настал апокалипсис. Но у человечества еще есть шанс на спасение. Группа людей, ученых, выжила, благодаря криогенной заморозке. Только они способны спасти жизнь на Земле, и главным героям предстоит охранять их криогенный сон. Но, как оказалось, это задача не из самых простых. Впереди ребят ожидают неимоверные испытания.-Качество исходника: Blu-Ray
    Качество: BDRip
    Тип: SD (480p)
    Контейнер: M4V
    Видео: H.264, 640x358 анаформ 852х358, 2.40:1, 1 500 Kbps, 23.976 fps
    Аудио 1: Русский/Многоголосый закадровый (R5), AAC / 2.0 / 157 Kbps / 48.0 KHz
    Аудио 2: Английский/Оригинальная дорожка , AAC / 2.0 / 157 Kbps / 48.0 KHz
    Аудио 3: Украинский/Многоголосый закадровый (R5), AAC / 2.0 / 157 Kbps / 48.0 KHz
    Субтитры 1: Русские полные
    Субтитры 2: Английские полные
    Субтитры 3: Украинские полные
    -

    iTunes Meta Tags

    Sort Name: Air
    XID: Apple:vendor_id:2014-645292
    contentID: 1014874786
    Copyright: © 2015 Automatik Entertainment, LLC. All Rights Reserved.
    Screenwriters: Кристиан Кантамесса, Chris Pasetto
    Producers: Дэвид Элперт, Крис Фергюсон, Брайан Кэвэна-Джонс
    Director: Кристиан Кантамесса
    Cast: Норман Ридус, Джимон Хонсу, Сандрин Холт, Питер Бенсон, Стив Бёрджесс, Майкл Хоган, Паула Линдберг, Дэвид Найкл
    Studio: Automatik Entertainment
    Rating Annotation: Rated PG-13 for some violence, language and sexual references
    Rating: 4
    Long Description: В центре сюжета два человека, герои Ридуса и Хонсу. Атмосфера стала совершенно непригодной для жизни, настал апокалипсис. Но у человечества еще есть шанс на спасение. Группа людей, ученых, выжила, благодаря криогенной заморозке. Только они способны спасти жизнь на Земле, и главным героям предстоит охранять их криогенный сон. Но, как оказалось, это задача не из самых простых. Впереди ребят ожидают неимоверные испытания.
    Description: В центре сюжета два человека, герои Ридуса и Хонсу. Атмосфера стала совершенно непригодной для жизни, настал апокалипсис. Но у человечества еще есть шанс на спасение...
    Release Date: 2015-08-14T08:00:00Z
    Genre: Sci-Fi & Fantasy
    Artist: Christian Cantamessa
    Name: Air

    MediaInfo

    General
    Complete name : /Users/imac/HandBrake/Air.(480p).(pk).m4v
    Format : MPEG-4
    Codec ID : M4V
    File size : 1.30 GiB
    Duration : 1h 34mn
    Overall bit rate mode : Variable
    Overall bit rate : 1 976 Kbps
    Movie name : Air
    Performer : Christian Cantamessa
    Director : Кристиан Кантамесса
    Actor : Норман Ридус / Джимон Хонсу / Сандрин Холт / Питер Бенсон / Стив Бёрджесс / Майкл Хоган / Паула Линдберг / Дэвид Найкл
    Screenplay by : Кристиан Кантамесса / Chris Pasetto
    Producer : Дэвид Элперт / Крис Фергюсон / Брайан Кэвэна-Джонс
    Production studio : Automatik Entertainment
    Genre : Sci-Fi & Fantasy
    ContentType : Short Film
    Description : В центре сюжета два человека, герои Ридуса и Хонсу. Атмосфера стала совершенно непригодной для жизни, настал апокалипсис. Но у человечества еще есть шанс на спасение...
    Recorded date : UTC 2015-08-14 08:00:00
    Encoded date : UTC 2015-10-15 20:49:20
    Tagged date : UTC 2015-10-15 20:52:07
    Copyright : © 2015 Automatik Entertainment, LLC. All Rights Reserved.
    Cover : Yes
    Rating : None
    Title/Sort : Air
    LongDescription : В центре сюжета два человека, герои Ридуса и Хонсу. Атмосфера стала совершенно непригодной для жизни, настал апокалипсис. Но у человечества еще есть шанс на спасение. Группа людей, ученых, выжила, благодаря криогенной заморозке. Только они способны спасти жизнь на Земле, и главным героям предстоит охранять их криогенный сон. Но, как оказалось, это задача не из самых простых. Впереди ребят ожидают неимоверные испытания.
    AppleStoreCatalogID : 1014874786
    Vendor : Apple:vendor_id:2014-645292
    ContentRating : mpaa|PG-13|300|Rated PG-13 for some violence, language and sexual references
    Video #1
    ID : 1
    Format : AVC
    Format/Info : Advanced Video Codec
    Format profile : Baseline@L3
    Format settings, CABAC : No
    Format settings, ReFrames : 2 frames
    Codec ID : avc1
    Codec ID/Info : Advanced Video Coding
    Duration : 1h 34mn
    Bit rate : 1 500 Kbps
    Width : 640 pixels
    Height : 358 pixels
    Display aspect ratio : 2.40:1
    Original display aspect ratio : 2.40:1
    Frame rate mode : Variable
    Frame rate : 23.976 fps
    Minimum frame rate : 23.974 fps
    Maximum frame rate : 23.981 fps
    Color space : YUV
    Chroma subsampling : 4:2:0
    Bit depth : 8 bits
    Scan type : Progressive
    Bits/(Pixel*Frame) : 0.273
    Stream size : 1 011 MiB (76%)
    Title : Main Program
    Writing library : x264 core 142 r2479 dd79a61
    Encoding settings : cabac=0 / ref=2 / deblock=1:0:0 / analyse=0x1:0x111 / me=umh / subme=6 / psy=1 / psy_rd=1.00:0.00 / mixed_ref=1 / me_range=16 / chroma_me=1 / trellis=0 / 8x8dct=0 / cqm=0 / deadzone=21,11 / fast_pskip=1 / chroma_qp_offset=-2 / threads=36 / lookahead_threads=2 / sliced_threads=0 / nr=0 / decimate=1 / interlaced=0 / bluray_compat=0 / constrained_intra=0 / bframes=0 / weightp=0 / keyint=240 / keyint_min=24 / scenecut=40 / intra_refresh=0 / rc_lookahead=40 / rc=2pass / mbtree=1 / bitrate=1500 / ratetol=1.0 / qcomp=0.60 / qpmin=0 / qpmax=69 / qpstep=4 / cplxblur=20.0 / qblur=0.5 / vbv_maxrate=5000 / vbv_bufsize=5000 / nal_hrd=none / filler=0 / ip_ratio=1.40 / aq=1:1.00
    Language : English
    Encoded date : UTC 2015-10-15 20:49:20
    Tagged date : UTC 2015-10-15 20:49:24
    Color range : Limited
    Color primaries : BT.709
    Transfer characteristics : BT.709
    Matrix coefficients : BT.709
    Video #2
    ID : 9
    Format : JPEG
    Codec ID : jpeg
    Duration : 1h 34mn
    Bit rate mode : Variable
    Bit rate : 581 bps
    Width : 640 pixels
    Height : 268 pixels
    Display aspect ratio : 2.40:1
    Frame rate mode : Variable
    Frame rate : 0.003 fps
    Minimum frame rate : 0.002 fps
    Maximum frame rate : 0.004 fps
    Color space : YUV
    Chroma subsampling : 4:2:0
    Bit depth : 8 bits
    Compression mode : Lossy
    Bits/(Pixel*Frame) : 1.129
    Stream size : 378 KiB (0%)
    Title : Chapter Images
    Language : English
    Encoded date : UTC 2015-10-15 20:49:51
    Tagged date : UTC 2015-10-15 20:49:51
    Audio #1
    ID : 2
    Format : AAC
    Format/Info : Advanced Audio Codec
    Format profile : LC
    Codec ID : 40
    Duration : 1h 34mn
    Bit rate mode : Variable
    Bit rate : 157 Kbps
    Maximum bit rate : 235 Kbps
    Channel(s) : 2 channels
    Channel positions : Front: L R
    Sampling rate : 48.0 KHz
    Compression mode : Lossy
    Stream size : 106 MiB (8%)
    Title : Russian Stereo
    Language : Russian
    Encoded date : UTC 2015-10-15 20:49:20
    Tagged date : UTC 2015-10-15 20:49:48
    Audio #2
    ID : 3
    Format : AAC
    Format/Info : Advanced Audio Codec
    Format profile : LC
    Codec ID : 40
    Duration : 1h 34mn
    Bit rate mode : Variable
    Bit rate : 157 Kbps
    Maximum bit rate : 238 Kbps
    Channel(s) : 2 channels
    Channel positions : Front: L R
    Sampling rate : 48.0 KHz
    Compression mode : Lossy
    Stream size : 106 MiB (8%)
    Title : English Stereo
    Language : English
    Encoded date : UTC 2015-10-15 20:49:20
    Tagged date : UTC 2015-10-15 20:49:48
    Audio #3
    ID : 4
    Format : AAC
    Format/Info : Advanced Audio Codec
    Format profile : LC
    Codec ID : 40
    Duration : 1h 34mn
    Bit rate mode : Variable
    Bit rate : 157 Kbps
    Maximum bit rate : 235 Kbps
    Channel(s) : 2 channels
    Channel positions : Front: L R
    Sampling rate : 48.0 KHz
    Compression mode : Lossy
    Stream size : 106 MiB (8%)
    Title : Ukrainian Stereo
    Language : Ukrainian
    Encoded date : UTC 2015-10-15 20:49:20
    Tagged date : UTC 2015-10-15 20:49:48
    Text #1
    ID : 5
    Format : Timed Text
    Muxing mode : sbtl
    Codec ID : tx3g
    Duration : 1h 29mn
    Bit rate mode : Variable
    Bit rate : 65 bps
    Stream size : 42.2 KiB (0%)
    Title : Russian full
    Language : Russian
    Encoded date : UTC 2015-10-15 20:49:20
    Tagged date : UTC 2015-10-15 20:49:47
    Text #2
    ID : 6
    Format : Timed Text
    Muxing mode : sbtl
    Codec ID : tx3g
    Duration : 1h 24mn
    Bit rate mode : Variable
    Bit rate : 43 bps
    Stream size : 27.1 KiB (0%)
    Title : English full
    Language : English
    Encoded date : UTC 2015-10-15 20:49:20
    Tagged date : UTC 2015-10-15 20:49:46
    Text #3
    ID : 7
    Format : Timed Text
    Muxing mode : sbtl
    Codec ID : tx3g
    Duration : 1h 28mn
    Bit rate mode : Variable
    Bit rate : 62 bps
    Stream size : 40.3 KiB (0%)
    Title : Ukrainian full
    Language : Ukrainian
    Encoded date : UTC 2015-10-15 20:49:20
    Tagged date : UTC 2015-10-15 20:49:46
    Menu #1
    00:00:00.000 : Chapter 1
    00:04:28.727 : Chapter 2
    00:09:10.467 : Chapter 3
    00:16:31.324 : Chapter 4
    00:23:10.639 : Chapter 5
    00:28:57.861 : Chapter 6
    00:34:35.991 : Chapter 7
    00:40:38.728 : Chapter 8
    00:45:14.795 : Chapter 9
    00:49:08.779 : Chapter 10
    00:54:54.625 : Chapter 11
    00:59:38.575 : Chapter 12
    01:04:56.351 : Chapter 13
    01:13:30.072 : Chapter 14
    01:19:13.540 : Chapter 15
    01:23:40.224 : Chapter 16
    Menu #2
    ID : 8
    Codec ID : text
    Duration : 1h 34mn
    Language : English
    Encoded date : UTC 2015-10-15 20:49:48
    Tagged date : UTC 2015-10-15 20:49:48
    00:00:00.000 : Chapter 1
    00:04:28.727 : Chapter 2
    00:09:10.467 : Chapter 3
    00:16:31.324 : Chapter 4
    00:23:10.639 : Chapter 5
    00:28:57.861 : Chapter 6
    00:34:35.991 : Chapter 7
    00:40:38.728 : Chapter 8
    00:45:14.795 : Chapter 9
    00:49:08.779 : Chapter 10
    00:54:54.625 : Chapter 11
    00:59:38.575 : Chapter 12
    01:04:56.351 : Chapter 13
    01:13:30.072 : Chapter 14
    01:19:13.540 : Chapter 15
    01:23:40.224 : Chapter 16
    Bit rate mode : VBR

    x264 лог

    x264 [info]: frame I:2371  Avg QP:11.36  size: 20719
    x264 [info]: frame P:133540 Avg QP:13.44  size:  7567
    x264 [info]: mb I  I16..4: 35.3%  0.0% 64.7%
    x264 [info]: mb P  I16..4:  1.3%  0.0%  2.7%  P16..4: 40.3% 28.9% 12.5%  0.0%  0.0%    skip:14.3%
    x264 [info]: coded y,uvDC,uvAC intra: 74.8% 58.9% 43.2% inter: 33.3% 11.4% 3.2%
    x264 [info]: i16 v,h,dc,p: 46% 16% 11% 27%
    x264 [info]: i4 v,h,dc,ddl,ddr,vr,hd,vl,hu: 34% 16% 17%  5%  7%  7%  5%  6%  3%
    x264 [info]: i8c dc,h,v,p: 65% 13% 19%  3%
    x264 [info]: ref P L0: 72.5% 27.5%
    x264 [info]: kb/s:1495.52

    Скриншоты

    -

    Релиз подготовлен для просмотра на Apple TV, iPad, iPhone, iPod Touch.
    Для просмотра данного релиза на компьютере с ОС Windows рекомендуется использовать VLC media player
    Скачать .torrent

    Скачать торрент-файл бесплатно и на максимальной скорости!

    Как скачивать? · Что такое торрент? · Рейтинг и ограничения

    !ВНИМАНИЕ!
    Сайт не распространяет и не хранит электронные версии произведений, а занимается лишь лишь предоставлением доступа к создаваемому пользователями каталогу ссылок на торрент-файлы, которые содержат только списки хеш-сумм, убедительная просьба с жалобами обращаться напрямую к пользователю. Файлы для обмена на трекере предоставлены пользователями сайта, и администрация не несёт ответственности за их содержание. Просьба не заливать файлы, защищенные авторскими правами, а также файлы нелегального содержания!


    _________________
    [Профиль] [ЛС]
    Показать сообщения:    
    Ответить на тему

    Текущее время: Сегодня, в 22:03

    Часовой пояс: GMT + 2



    Вы не можете начинать темы
    Вы не можете отвечать на сообщения
    Вы не можете редактировать свои сообщения
    Вы не можете удалять свои сообщения
    Вы не можете голосовать в опросах
    Вы не можете прикреплять файлы к сообщениям
    Вы не можете скачивать файлы