BitTorrentTracker PerecTracker.org
BitTorrentTracker PerecTracker.org
    
Регистрация  ·  Вход
 
 · 
Забыли пароль?

  • Kalafina 5th Anniversary LIVE "oblivious" (WOWOW LIVE 2013.03.13) [2013, JPop, HDTVRip, 720p]

    Ответить на тему
     
    Автор Сообщение

    Columb

    Создавать темы 25-Июл-2013 20:48

           

    [Цитировать]

    --Жанр: JPop
    Дата выпуска: 2013.03.13
    Производитель: Япония
    Формат: MKV
    Качество видео: HDTVRip
    Продолжительность: 01:25:20

    Вместо описания :D

    Треклист

    01 - oblivious
    02 - love come down
    -
    03 - moonfesta
    -
    04 - Manten
    -
    05 - to the beginning
    06 - Mata Kaze ga Tsuyoku Natta
    07 - Ongaku
    -
    08 - Kimi ga Hikari ni Kaete Iku
    09 - Hikari Furu
    -
    10 - Mirai
    11 - sprinter

    Тех. данные и скриншоты

    MediaInfo

    Формат : Matroska
    Размер файла : 2.74 GiB
    Продолжительность : 1h 25mn
    Общий поток : 4 594 Kbps
    Дата кодирования : UTC 2013-07-24 20:57:15
    Программа-кодировщик : mkvmerge v3.3.0 ('Language') built on Mar 24 2010 14:59:24
    Библиотека кодирования : libebml v0.8.0 + libmatroska v0.9.0
    Video
    Идентификатор : 1
    Формат : AVC
    Формат/Информация : Advanced Video Codec
    Профайл формата : High@L4.1
    Параметры CABAC формата : Yes
    Параметры ReFrames формата : 4 frames
    Режим смешивания : Container profile=Unknown@4.1
    Идентификатор кодека : V_MPEG4/ISO/AVC
    Продолжительность : 1h 25mn
    Битрейт : 4 310 Kbps
    Номинальный битрейт : 4 400 Kbps
    Ширина : 1 280 pixels
    Высота : 720 pixels
    Соотношение кадра : 16/9
    Частота кадров : 29.970 fps
    Разрешение : 24 bits
    Колориметрия : 4:2:0
    Тип развёртки : Progressive
    Бит/(Пиксели*Кадры) : 0.156
    Размер потока : 2.57 GiB (94%)
    Библиотека кодирования : x264 core 92 r1510 33d382a
    Настройки программы : cabac=1 / ref=2 / deblock=1:0:0 / analyse=0x3:0x113 / me=hex / subme=4 / psy=1 / psy_rd=0.00:0.00 / mixed_ref=0 / me_range=16 / chroma_me=1 / trellis=1 / 8x8dct=1 / cqm=0 / deadzone=21,11 / fast_pskip=1 / chroma_qp_offset=0 / threads=3 / sliced_threads=0 / nr=0 / decimate=1 / interlaced=0 / constrained_intra=0 / bframes=3 / b_pyramid=2 / b_adapt=1 / b_bias=0 / direct=1 / wpredb=1 / wpredp=1 / keyint=250 / keyint_min=25 / scenecut=40 / intra_refresh=0 / rc_lookahead=20 / rc=abr / mbtree=1 / bitrate=4400 / ratetol=1.0 / qcomp=0.60 / qpmin=10 / qpmax=51 / qpstep=4 / ip_ratio=1.40 / aq=1:1.00
    Audio
    Идентификатор : 2
    Формат : MPEG Audio
    Версия формата : Version 1
    Профайл формата : Layer 3
    Идентификатор кодека : A_MPEG/L3
    Идентификатор кодека/Подсказка : MP3
    Продолжительность : 1h 25mn
    Вид битрейта : Constant
    Битрейт : 192 Kbps
    Канал(ы) : 2 channels
    Частота : 48.0 KHz
    Разрешение : 16 bits
    Размер потока : 117 MiB (4%)
    Библиотека кодирования : LAME3.98r
    Настройки программы : -m s -V 4 -q 0 -lowpass 18.6 -b 192
    Размер: 2,73 Gb
    Контейнер: Matroska at 4 594 Kbps
    Видео: AVC at 4 310 Kbps 1280 x 720 (1.778) at 29.970 fps
    Аудио: MPEG Audio at 192 Kbps, 2 channels, 48.0 KHz
    Скачать .torrent

    Скачать торрент-файл бесплатно и на максимальной скорости!

    Как скачивать? · Что такое торрент? · Рейтинг и ограничения

    !ВНИМАНИЕ!
    Сайт не распространяет и не хранит электронные версии произведений, а занимается лишь лишь предоставлением доступа к создаваемому пользователями каталогу ссылок на торрент-файлы, которые содержат только списки хеш-сумм, убедительная просьба с жалобами обращаться напрямую к пользователю. Файлы для обмена на трекере предоставлены пользователями сайта, и администрация не несёт ответственности за их содержание. Просьба не заливать файлы, защищенные авторскими правами, а также файлы нелегального содержания!

    [Профиль] [ЛС]
    Показать сообщения:    
    Ответить на тему

    Текущее время: Сегодня, в 10:11

    Часовой пояс: GMT + 2



    Вы не можете начинать темы
    Вы не можете отвечать на сообщения
    Вы не можете редактировать свои сообщения
    Вы не можете удалять свои сообщения
    Вы не можете голосовать в опросах
    Вы не можете прикреплять файлы к сообщениям
    Вы не можете скачивать файлы