BitTorrentTracker PerecTracker.org
BitTorrentTracker PerecTracker.org
    
Регистрация  ·  Вход
 
 · 
Забыли пароль?

  • Кто я / Who Am I - Kein System ist sicher (Баран бо Одар / Baran bo Odar) [2014, Германия, триллер, BDRip-AVC] Dub + Sub (rus, eng, ger)

    Ответить на тему
     
    Автор Сообщение

    Light

    Создавать темы 16-Окт-2015 03:51

           

    [Цитировать]

    Кто я
    Who Am I - Kein System ist sicher
    «Каждый видит то, что хочет видеть»


    Страна: Германия
    Жанр: триллер
    Год выпуска: 2014
    Продолжительность: 01:41:47
    Перевод: Профессиональный (полное дублирование) [Лицензия BD RUS]
    Субтитры: русские, английские, немецкие
    Оригинальная аудиодорожка: нет
    Режиссер: Баран бо Одар / Baran bo Odar
    В ролях: Том Шиллинг, Элиас ЭмБарек, Вотан Вильке Мёринг, Антуан Моно мл., Ханна Херцшпрунг, Штефан Кампвирт, Трине Дюрхольм, Леопольд Хорнунг, Катарина Матц, Леонхард Каров, Арндт Шверинг-Зонрей, Матиас Нюкирш
    Описание:
    Бенджамин - молодой компьютерный гений. С детства он мечтает стать супергероем из комиксов и покорить мир. Но в реальном мире он - Никто. Его жизнь неожиданно меняется, когда он встречает свою полную противоположность - харизматичного парня Макса.
    Не желая жить в жестких рамках системы, они совершают череду дерзких кибер-преступлений. Восстав против равнодушного общества, они становятся кумирами для целого поколения.
    Теперь Бенджамин не просто супергерой, он - самый разыскиваемый хакер в мире. Но что его ждет после погружения в альтернативную реальность? Кто же он на самом деле?...

    Релиз:
    Автор рипа: Stalker oK
    Сэмпл
    Качество видео: BDRip-AVC [Blu-ray 1080p HDBrise]
    Формат видео: MKV
    Видео кодек: AVC
    Аудио кодек: AC3
    Видео: 1594 Кбит/сек, 1060x444 (2.35:1), 25 кадр/сек, AVC
    Аудио: русский, 448 Кбит/сек, 48 КГц, 16 бит, 5.1, AC3
    Навигация по главам: есть

    MediaInfo

    Общее
    Уникальный идентификатор : 222422408080761450151016506647925767433 (0xA754FF62E163BFBAABDC4F9CA0483D09)
    Полное имя : N:\Rips\Who Am I (2014)\Who.Am.I.2014.BDRip-AVC.MVO.1.45Gb...stalkerok.new-team.mkv
    Формат : Matroska
    Размер файла : 1,45 Гбайт
    Продолжительность : 1 ч. 41 м.
    Общий поток : 2044 Кбит/сек
    Название фильма : Who Am I - Kein System ist sicher (2014) (New-Team) (Rip by Stalker oK)
    Дата кодирования : UTC 2015-10-15 11:21:46
    Программа кодирования : mkvmerge v7.9.0 ('Birds') 64bit
    Библиотека кодирования : libebml v1.3.1 + libmatroska v1.4.2
    Видео
    Идентификатор : 1
    Формат : AVC
    Формат/Информация : Advanced Video Codec
    Профиль формата : High@L4.1
    Параметр CABAC формата : Да
    Параметр ReFrames формата : 12 кадры
    Идентификатор кодека : V_MPEG4/ISO/AVC
    Продолжительность : 1 ч. 41 м.
    Битрейт : 1594 Кбит/сек
    Ширина : 1060 пикс.
    Высота : 444 пикс.
    Соотношение сторон : 2,35:1
    Соотношение сторон в оригинале : 2,35:1
    Частота кадров : 25,000 кадр/сек
    Цветовое пространство : YUV
    Подвыборка цветности : 4:2:0
    Битовая глубина : 8 бит
    Тип развёртки : Прогрессивная
    Бит/(Пиксели*Кадры) : 0.135
    Размер потока : 1,11 Гбайт (76%)
    Заголовок : Who Am I - Kein System ist sicher (2014) (New-Team) (Rip by Stalker oK)
    Библиотека кодирования : x264 core 146 r2538kMod 121396c
    Настройки программы : cabac=1 / ref=12 / deblock=1:-3:-2 / analyse=0x3:0x133 / me=umh / subme=11 / psy=1 / fade_compensate=0.00 / psy_rd=1.00:0.12 / mixed_ref=1 / me_range=48 / chroma_me=1 / trellis=2 / 8x8dct=1 / cqm=0 / deadzone=21,11 / fast_pskip=0 / chroma_qp_offset=-3 / threads=12 / lookahead_threads=3 / sliced_threads=0 / nr=0 / decimate=0 / interlaced=0 / bluray_compat=0 / constrained_intra=0 / fgo=0 / bframes=14 / b_pyramid=2 / b_adapt=2 / b_bias=0 / direct=3 / weightb=1 / open_gop=0 / weightp=2 / keyint=250 / keyint_min=25 / scenecut=40 / intra_refresh=0 / rc_lookahead=60 / rc=2pass / mbtree=0 / bitrate=1594 / ratetol=1.0 / qcomp=0.70 / qpmin=0 / qpmax=69 / qpstep=4 / cplxblur=20.0 / qblur=0.5 / vbv_maxrate=50000 / vbv_bufsize=62500 / nal_hrd=none / filler=0 / ip_ratio=1.40 / pb_ratio=1.30 / aq=3:0.90
    Аудио
    Идентификатор : 2
    Формат : AC-3
    Формат/Информация : Audio Coding 3
    Расширение режима : CM (complete main)
    Идентификатор кодека : A_AC3
    Продолжительность : 1 ч. 41 м.
    Вид битрейта : Постоянный
    Битрейт : 448 Кбит/сек
    Канал(ы) : 6 канала(ов)
    Расположение каналов : Front: L C R, Side: L R, LFE
    Частота : 48,0 КГц
    Битовая глубина : 16 бит
    Метод сжатия : С потерями
    Задержка видео : 900 мс.
    Размер потока : 326 Мбайт (22%)
    Язык : Russian
    Текст #1
    Идентификатор : 3
    Формат : UTF-8
    Идентификатор кодека : S_TEXT/UTF8
    Идентификатор кодека/Информация : UTF-8 Plain Text
    Язык : Russian
    Текст #2
    Идентификатор : 4
    Формат : UTF-8
    Идентификатор кодека : S_TEXT/UTF8
    Идентификатор кодека/Информация : UTF-8 Plain Text
    Язык : English
    Текст #3
    Идентификатор : 5
    Формат : UTF-8
    Идентификатор кодека : S_TEXT/UTF8
    Идентификатор кодека/Информация : UTF-8 Plain Text
    Язык : German
    Меню
    00:00:00.000 : en:00:00:00.000
    00:04:27.080 : en:00:04:27.080
    00:11:11.240 : en:00:11:11.240
    00:18:06.320 : en:00:18:06.320
    00:24:45.840 : en:00:24:45.840
    00:29:37.960 : en:00:29:37.960
    00:36:23.040 : en:00:36:23.040
    00:41:53.920 : en:00:41:53.920
    00:48:30.000 : en:00:48:30.000
    00:55:18.920 : en:00:55:18.920
    01:01:10.960 : en:01:01:10.960
    01:06:13.920 : en:01:06:13.920
    01:09:59.280 : en:01:09:59.280
    01:17:00.160 : en:01:17:00.160
    01:23:37.360 : en:01:23:37.360
    01:37:55.440 : en:01:37:55.440

    Скриншоты

    Скачать .torrent

    Скачать торрент-файл бесплатно и на максимальной скорости!

    Как скачивать? · Что такое торрент? · Рейтинг и ограничения

    !ВНИМАНИЕ!
    Сайт не распространяет и не хранит электронные версии произведений, а занимается лишь лишь предоставлением доступа к создаваемому пользователями каталогу ссылок на торрент-файлы, которые содержат только списки хеш-сумм, убедительная просьба с жалобами обращаться напрямую к пользователю. Файлы для обмена на трекере предоставлены пользователями сайта, и администрация не несёт ответственности за их содержание. Просьба не заливать файлы, защищенные авторскими правами, а также файлы нелегального содержания!


    _________________
    [Профиль] [ЛС]
    Показать сообщения:    
    Ответить на тему

    Текущее время: Сегодня, в 14:38

    Часовой пояс: GMT + 2



    Вы не можете начинать темы
    Вы не можете отвечать на сообщения
    Вы не можете редактировать свои сообщения
    Вы не можете удалять свои сообщения
    Вы не можете голосовать в опросах
    Вы не можете прикреплять файлы к сообщениям
    Вы не можете скачивать файлы