BitTorrentTracker PerecTracker.org
BitTorrentTracker PerecTracker.org
    
Регистрация  ·  Вход
 
 · 
Забыли пароль?

  • Семья Оппенгейм (Григорий Рошаль) [1938, антифашистская драма, экранизация, SATRip]

    Ответить на тему
     
    Автор Сообщение

    Light

    Создавать темы 15-Окт-2015 23:39

           

    [Цитировать]

    Семья ОппенгеймГод выпуска: 1938.
    Жанр: антифашистская драма, экранизация.
    Продолжительность: 01:39:06.
    Режиссер: Григорий Рошаль.
    В ролях:
    Владимир Балашов, Иосиф Толчанов, Ада Войцик, Николай Плотников, Гари Миновицкая, Раиса Есипова, Осип Абдулов, С. Зыков, Соломон Михоэлс, Сергей Днепров, Аркадий Благонравов, Николай Боголюбов, Владимир Соловьёв, Алексей Консовский, Михаил Астангов, Константин Карельских, Сергей Мартинсон, Михаил Державин (ст.).
    Описание:
    По одноименному роману Лиона Фейхтвангера.
    События, связанные с воцарением фашизма в Германии и нарастанием расовой дискриминации, показаны на примере еврейской семьи. Один из героев фильма кончает жизнь самоубийством, другой, выдающийся ученый-хирург, попадает в лагерь. Когда ему удается освободиться, он вместе с дочерью покидает страну, которая перестала быть его Родиной.

    Доп. информация:
    Страна: СССР .
    Киностудия: Ленфильм.
    Премьера: 5 января 1939 года.
    Авторы сценария: Григорий Рошаль, Серафима Рошаль.
    Оператор: Леонид Косматов.
    Композитор: Николай Крюков.
    Художник: Иосиф Шпинель.

    Еще постеры

    Релиз
    Рип с этой раздачи.
    Большое спасибо Cheef mate за предоставленый материал для рипа!!!

    Качество: SATRip
    Формат: AVI
    Видео: 688x512 (1.34:1), 25 fps, XviD build 73 ~1925 kbps avg, 0.22 bit/pixel
    Аудио: 48 kHz, AC3 Dolby Digital, 2/0 (L,R) ch, ~192 kbps

    Отчет MI

    General
    Complete name : Sem'ya.Oppengejm.1938.XviD.SATRip.fenixclub_1.47.avi
    Format : AVI
    Format/Info : Audio Video Interleave
    File size : 1.47 GiB
    Duration : 1h 39mn
    Overall bit rate : 2 128 Kbps
    Writing application : VirtualDubMod 1.5.10.3 | www.virtualdub-fr.org || (build 2550/release)
    Writing library : VirtualDubMod build 2550/release
    Video
    ID : 0
    Format : MPEG-4 Visual
    Format profile : Advanced Simple@L5
    Format settings, BVOP : 2
    Format settings, QPel : No
    Format settings, GMC : No warppoints
    Format settings, Matrix : Custom
    Codec ID : XVID
    Codec ID/Hint : XviD
    Duration : 1h 39mn
    Bit rate : 1 926 Kbps
    Width : 688 pixels
    Height : 512 pixels
    Display aspect ratio : 4:3
    Frame rate : 25.000 fps
    Color space : YUV
    Chroma subsampling : 4:2:0
    Bit depth : 8 bits
    Scan type : Progressive
    Compression mode : Lossy
    Bits/(Pixel*Frame) : 0.219
    Stream size : 1.33 GiB (91%)
    Writing library : XviD 73
    Audio
    ID : 1
    Format : AC-3
    Format/Info : Audio Coding 3
    Mode extension : CM (complete main)
    Format settings, Endianness : Big
    Codec ID : 2000
    Duration : 1h 39mn
    Bit rate mode : Constant
    Bit rate : 192 Kbps
    Channel(s) : 2 channels
    Channel positions : Front: L R
    Sampling rate : 48.0 KHz
    Compression mode : Lossy
    Stream size : 136 MiB (9%)
    Alignment : Split accross interleaves
    Interleave, duration : 40 ms (1.00 video frame)
    Interleave, preload duratio : 500 ms.
    Скриншоты

    Альтернативный хост

    Скачать .torrent

    Скачать торрент-файл бесплатно и на максимальной скорости!

    Как скачивать? · Что такое торрент? · Рейтинг и ограничения

    !ВНИМАНИЕ!
    Сайт не распространяет и не хранит электронные версии произведений, а занимается лишь лишь предоставлением доступа к создаваемому пользователями каталогу ссылок на торрент-файлы, которые содержат только списки хеш-сумм, убедительная просьба с жалобами обращаться напрямую к пользователю. Файлы для обмена на трекере предоставлены пользователями сайта, и администрация не несёт ответственности за их содержание. Просьба не заливать файлы, защищенные авторскими правами, а также файлы нелегального содержания!


    _________________
    [Профиль] [ЛС]
    Показать сообщения:    
    Ответить на тему

    Текущее время: Сегодня, в 10:50

    Часовой пояс: GMT + 2



    Вы не можете начинать темы
    Вы не можете отвечать на сообщения
    Вы не можете редактировать свои сообщения
    Вы не можете удалять свои сообщения
    Вы не можете голосовать в опросах
    Вы не можете прикреплять файлы к сообщениям
    Вы не можете скачивать файлы