BitTorrentTracker PerecTracker.org
BitTorrentTracker PerecTracker.org
    
Регистрация  ·  Вход
 
 · 
Забыли пароль?

  • Ментовские войны 9 / Сезон: 9 / Серии: 1-16 из 16 (Денис Скворцов) [2015, детектив, криминал, DVB]

    Ответить на тему
     
    Автор Сообщение

    rechyn

    Создавать темы 15-Окт-2015 21:13

           

    [Цитировать]

    Ментовские войны 9Год выпуска: 2015
    Производство: Россия / Студия Панорама
    Жанр: детектив, криминал
    Продолжительность: ~ 00:45:00
    Субтитры: нет
    Режиссёр: Денис Скворцов
    В ролях: Александр Устюгов, Дмитрий Быковский-Ромашов, Всеволод Цурило, Ольга Павловец, Андрей Родимов, Дмитрий Мухамадеев, Сергей Выборнов, Андрей Кузнецов, Сергей Гарусов, Дмитрий Соловьев
    Описание: В девятом сезоне Роман Шилов возвращается в строй и переводится в Главное Управление МВД по Северу-Западу. Теперь зона его ответственности — весь регион. Отдел Шилова будет заниматься раскрытием резонансных преступлений. С «гражданки» вернётся Джексон, а из патрульно-постовой службы — Паша Арнаутов.
    Первое дело отдела Шилова не заставило себя долго ждать — в торговом центре одного из городов Карелии происходит взрыв. Есть жертвы. Шилов подключается к расследованию и выясняет, что причиной трагедии стала борьба двух влиятельных лиц Лесноозерска за должность мэра и контроль над прибыльным предприятием города. Борьба идет не на жизнь, а на смерть.
    Шилова пытаются пустить по ложному следу, надавить на его руководство, угрожают его семье, но Шилов и его друзья идут до конца. Они задерживают преступника, но это всего лишь исполнитель. Шилов понимает, что прошел только «первый уровень» на подступах к преступной организации, с которой ему еще предстоит столкнуться… В ходе следующего расследования Шилов вновь пересекается со своей случайной знакомой Марианной, о которой он вспоминал все это время. Марианне очень нужна его помощь. Похоже, что в личной жизни Шилова грядут большие перемены.

    Качество: DVB
    Формат: TS
    Видео кодек: H.264
    Аудио кодек: MP2
    Видео: 720х576@1024:576 (16:9), 25fps, ~2300kbps, Bits/(Pixel*Frame) : 0.221
    Аудио: MPEG Audio 48000Hz 2ch 192 Кбит/сек

    MediaInfo

    Format : MPEG-TS
    File size : 832 MiB
    Duration : 44mn 26s
    Overall bit rate mode : Variable
    Overall bit rate : 2 616 Kbps
    Video
    ID : 202 (0xCA)
    Menu ID : 1 (0x1)
    Format : AVC
    Format/Info : Advanced Video Codec
    Format profile : High@L3.0
    Format settings, CABAC : Yes
    Format settings, ReFrames : 4 frames
    Codec ID : 27
    Duration : 44mn 26s
    Bit rate : 2 293 Kbps
    Width : 720 pixels
    Height : 576 pixels
    Display aspect ratio : 16:9
    Frame rate : 25.000 fps
    Standard : PAL
    Color space : YUV
    Chroma subsampling : 4:2:0
    Bit depth : 8 bits
    Scan type : Interlaced
    Scan order : Top Field First
    Bits/(Pixel*Frame) : 0.221
    Stream size : 729 MiB (88%)
    Color primaries : BT.601 PAL
    Transfer characteristics : BT.470 System B, BT.470 System G
    Matrix coefficients : BT.601
    Audio
    ID : 302 (0x12E)
    Menu ID : 1 (0x1)
    Format : MPEG Audio
    Format version : Version 1
    Format profile : Layer 2
    Codec ID : 3
    Duration : 44mn 26s
    Bit rate mode : Constant
    Bit rate : 192 Kbps
    Channel count : 2 channels
    Sampling rate : 48.0 KHz
    Compression mode : Lossy
    Stream size : 61.0 MiB (7%)
    Language : Russian

    Скриншоты


    Скачать .torrent

    Скачать торрент-файл бесплатно и на максимальной скорости!

    Как скачивать? · Что такое торрент? · Рейтинг и ограничения

    !ВНИМАНИЕ!
    Сайт не распространяет и не хранит электронные версии произведений, а занимается лишь лишь предоставлением доступа к создаваемому пользователями каталогу ссылок на торрент-файлы, которые содержат только списки хеш-сумм, убедительная просьба с жалобами обращаться напрямую к пользователю. Файлы для обмена на трекере предоставлены пользователями сайта, и администрация не несёт ответственности за их содержание. Просьба не заливать файлы, защищенные авторскими правами, а также файлы нелегального содержания!


    _________________
    [Профиль] [ЛС]
    Показать сообщения:    
    Ответить на тему

    Текущее время: Сегодня, в 22:29

    Часовой пояс: GMT + 2



    Вы не можете начинать темы
    Вы не можете отвечать на сообщения
    Вы не можете редактировать свои сообщения
    Вы не можете удалять свои сообщения
    Вы не можете голосовать в опросах
    Вы не можете прикреплять файлы к сообщениям
    Вы не можете скачивать файлы