BitTorrentTracker PerecTracker.org
BitTorrentTracker PerecTracker.org
    
Регистрация  ·  Вход
 
 · 
Забыли пароль?

  • Я - зомби / iZombie / Сезон 2 (1-9 серии из 13) (Майкл Филдс, Джон Т. Кречмер, Джейсон Блум) [2015 г., ужасы, фантастика, драма, комедия, криминал, WEB-DLRip] MVO (NewStudio) + Original

    Ответить на тему
     
    Автор Сообщение

    older

    Создавать темы 15-Окт-2015 08:51

           

    [Цитировать]

    Я - зомби / iZombie
    Год выпуска: 2015
    Страна: США
    Жанр: ужасы, фантастика, драма, комедия, криминал
    Продолжительность: ~ 00:42:00
    Перевод: профессиональный (многоголосый, закадровый) - NewStudio
    Субтитры: нет
    Режиссер: Майкл Филдс, Джон Т. Кречмер, Джейсон Блум- В ролях: Роуз МакИвер, Малкольм Гудвин, Рахул Коли, Молли Хэйгэн, Ник Пурча, Элиз Гэтьен, Мэттью МакКоулл, Роб Карпентер, Сунита Прасад, Ализа Веллани, Энди Ю, Джефф Парис, Лиэнн Лэпп, Даррен Э. Скотт, Дэвид Андерс, Роберт Бакли
    -Описание : В центре сюжета — студентка медицинского факультета Оливия «Лив» Мур, для которой последствия одной из вечеринок стали переломным моментом в жизни, превратившим её в зомби. Жизнерадостная, активная и пышущая здоровьем раньше, теперь Лив похожа на представителя готов — с бледной кожей, тёмными кругами вокруг глаз и почти белыми волосами. Она устраивается на работу в офис коронера, доктора Рави Чакрабарти, чтобы иметь доступ к мозгам, которые ей приходиться есть, чтобы поддерживать свою человеческую сущность. Однако с каждым съеденным ею мозгом она наследует воспоминания трупа. С помощью босса доктора Чакрабарти, узнавшего её секрет, и детектива полиции Клайва Бабино Лив способна разгадывать убийства тех людей, чей мозг она съела. - -Кодек: XviD
    Формат: AVI
    Качество: WEB-DLRip
    Видео: 720x400 (16:9), 1523 kbps, 23.976 fps, 0.22 bit/pixel
    Аудио 1: 48 kHz, MPEG Layer 3, 2 ch, 128.00 kbps - Ru
    Аудио 2: 48 kHz, MPEG Layer 3, 2 ch, 128.00 kbps - En-

    MediaInfo

    Общее
    Полное имя                               : \iZombie (Season 02) NewStudio\iZombie.s02e01.WEBDLRip.NewStudio.TV.avi
    Формат                                   : AVI
    Формат/Информация                        : Audio Video Interleave
    Размер файла                             : 550 Мбайт
    Продолжительность                        : 42 м.
    Общий поток                              : 1792 Кбит/сек
    Программа кодирования                    : VirtualDubMod 1.5.10.2 (build 2540/release)
    Библиотека кодирования                   : VirtualDubMod build 2540/release
    Видео
    Идентификатор                            : 0
    Формат                                   : MPEG-4 Visual
    Профиль формата                          : Advanced Simple@L5
    Параметр BVOP формата                    : 2
    Параметр QPel формата                    : Нет
    Параметр GMC формата                     : Без точки перехода
    Параметр матрицы формата                 : Default (MPEG)
    Идентификатор кодека                     : XVID
    Идентификатор кодека/Подсказка           : XviD
    Продолжительность                        : 42 м.
    Битрейт                                  : 1523 Кбит/сек
    Ширина                                   : 720 пикселей
    Высота                                   : 400 пикселей
    Соотношение сторон                       : 16:9
    Частота кадров                           : 23,976 кадра/сек
    Цветовое пространство                    : YUV
    Субдискретизация насыщенности            : 4:2:0
    Битовая глубина                          : 8 бит
    Тип развёртки                            : Прогрессивная
    Метод сжатия                             : С потерями
    Бит/(Пиксели*Кадры)                      : 0.220
    Размер потока                            : 467 Мбайт (85%)
    Библиотека кодирования                   : XviD 73
    Аудио #1
    Идентификатор                            : 1
    Формат                                   : MPEG Audio
    Версия формата                           : Version 1
    Профиль формата                          : Layer 3
    Режим                                    : Joint stereo
    Расширение режима                        : MS Stereo
    Идентификатор кодека                     : 55
    Идентификатор кодека/Подсказка           : MP3
    Продолжительность                        : 42 м.
    Вид битрейта                             : Постоянный
    Битрейт                                  : 128 Кбит/сек
    Каналы                                   : 2 канала
    Частота                                  : 48,0 КГц
    Метод сжатия                             : С потерями
    Размер потока                            : 39,3 Мбайт (7%)
    Выравнивание                             : Соединение по промежуткам
    Продолжительность промежутка             : 42  мс. (1,00 видеокадр)
    Время предзагрузки промежутка            : 504  мс.
    Аудио #2
    Идентификатор                            : 2
    Формат                                   : MPEG Audio
    Версия формата                           : Version 1
    Профиль формата                          : Layer 3
    Режим                                    : Joint stereo
    Идентификатор кодека                     : 55
    Идентификатор кодека/Подсказка           : MP3
    Продолжительность                        : 42 м.
    Вид битрейта                             : Постоянный
    Битрейт                                  : 128 Кбит/сек
    Каналы                                   : 2 канала
    Частота                                  : 48,0 КГц
    Метод сжатия                             : С потерями
    Размер потока                            : 39,3 Мбайт (7%)
    Выравнивание                             : Соединение по промежуткам
    Продолжительность промежутка             : 42  мс. (1,00 видеокадр)
    Время предзагрузки промежутка            : 504  мс.
    Библиотека кодирования                   : LAME3.99r
    Настройки программы                      : -m j -V 4 -q 2 -lowpass 17 -b 128

    Скриншоты

    Обновление раздачи

    При каждом добавлении создаётся новый торрент. Чтобы начать докачку новой серии, пользователям необходимо сделать следующее:
    1. Остановить скачивание,
    2. Удалить старый торрент у себя из клиента (старые серии удалять не надо),
    3. Скачать новый торрент и запустить его у себя в клиенте вместо старого, при этом указать клиенту путь в старую папку куда и должно происходить скачивание новых серий.
    Ваш клиент при этом должен произвести хеширование (проверку) старой папки (если не производит сам - помогите ему сделать это), и будет докачивать только те серии которых у вас ещё нет. Старые серии при этом не удаляются, а продолжают раздаваться!
    Если вы уже удалили старые серии, то предотвратить повторную закачку старых серий можно, отжав галочку в соответствующих местах при запуске нового торрента.
    11.12.15. Раздача обновлена!
    Добавлены 8-9 серии.
    Перекачайте торрент файл!
    Скачать .torrent

    Скачать торрент-файл бесплатно и на максимальной скорости!

    Как скачивать? · Что такое торрент? · Рейтинг и ограничения

    !ВНИМАНИЕ!
    Сайт не распространяет и не хранит электронные версии произведений, а занимается лишь лишь предоставлением доступа к создаваемому пользователями каталогу ссылок на торрент-файлы, которые содержат только списки хеш-сумм, убедительная просьба с жалобами обращаться напрямую к пользователю. Файлы для обмена на трекере предоставлены пользователями сайта, и администрация не несёт ответственности за их содержание. Просьба не заливать файлы, защищенные авторскими правами, а также файлы нелегального содержания!


    _________________


    Последний раз редактировалось: older (2015-12-11 14:29), всего редактировалось 7 раз(а)
    [Профиль] [ЛС]

    older ®

    Создавать темы 17-Окт-2015 08:10 (спустя 1 день 23 часа)

           

    [Цитировать]

    17.10.15. Раздача обновлена!
    Добавлена 2 серия.
    Перекачайте торрент файл!

    _________________
    [Профиль] [ЛС]

    older ®

    Создавать темы 03-Ноя-2015 06:22 (спустя 16 дней)

           

    [Цитировать]

    03.11.15. Раздача обновлена!
    Добавлены 3-4 серии.
    Перекачайте торрент файл!

    _________________
    [Профиль] [ЛС]

    older ®

    Создавать темы 07-Ноя-2015 07:15 (спустя 4 дня)

           

    [Цитировать]

    07.11.15. Раздача обновлена!
    Добавлена 5 серия.
    Перекачайте торрент файл!

    _________________
    [Профиль] [ЛС]

    older ®

    Создавать темы 14-Ноя-2015 10:16 (спустя 7 дней)

           

    [Цитировать]

    14.11.15. Раздача обновлена!
    Добавлена 6 серия.
    Перекачайте торрент файл!

    _________________
    [Профиль] [ЛС]

    older ®

    Создавать темы 27-Ноя-2015 21:15 (спустя 13 дней)

           

    [Цитировать]

    27.11.15. Раздача обновлена!
    Добавлена 7 серия.
    Перекачайте торрент файл!

    _________________
    [Профиль] [ЛС]

    older ®

    Создавать темы 11-Дек-2015 14:30 (спустя 13 дней)

           

    [Цитировать]

    11.12.15. Раздача обновлена!
    Добавлены 8-9 серии.
    Перекачайте торрент файл!

    _________________
    [Профиль] [ЛС]
    Показать сообщения:    
    Ответить на тему

    Текущее время: Сегодня, в 16:14

    Часовой пояс: GMT + 2



    Вы не можете начинать темы
    Вы не можете отвечать на сообщения
    Вы не можете редактировать свои сообщения
    Вы не можете удалять свои сообщения
    Вы не можете голосовать в опросах
    Вы не можете прикреплять файлы к сообщениям
    Вы не можете скачивать файлы