BitTorrentTracker PerecTracker.org
BitTorrentTracker PerecTracker.org
    
Регистрация  ·  Вход
 
 · 
Забыли пароль?

  • Термінатор. Генезис / Terminator. Genisys (Алан Тейлор) [2015 р., фантастика, бойовик, трилер, BDRip-AVC] DAB (Megogo) Ukr

    Ответить на тему
     
    Автор Сообщение

    older

    Создавать темы 15-Окт-2015 05:54

           

    [Цитировать]

    Термінатор. Генезис / Terminator. Genisys
    Рік випуску: 2015
    Країна: США
    Кіностудія / кінокомпанія: Paramount Pictures, Skydance Productions
    Жанр: фантастика, бойовик, трилер
    Тривалість: 02:05:43
    Субтитри: відсутні
    Переклад:: професійний, дубльований - Megogo-Режисер: Алан Тейлор
    Продюсер: Девід Еллісон, Дена Голдберг, Білл Карраро
    Сценарій: Лаета Калогрідіс, Патрік Люссьє, Джеймс Кемерон-Світова прем'єра: 21 червня 2015
    Прем'єра в Україні: 2 липня 2015
    Реліз на DVD: 22 листопада 2015 «Новий Диск»
    Реліз на Blu-Ray: 22 листопада 2015 «Новий Диск»
    Обмеження за віком: 12+- -Актори: Арнольд Шварценеґер / Arnold Schwarzenegger, Джейсон Кларк / Jason Clarke, Емілія Кларк / Emilia Clarke, Джей Кортні / Jai Courtney, Дж. К. Сіммонс / J.K. Simmons, Дайо Окенайї / Dayo Okeniyi, Метт Сміт / Matt Smith, Кортні Б. Венс / Courtney B. Vance, Бен Хан Лі / Byung-hun Lee, Сандрін Голт / Sandrine Holt-Сюжет: Постійні занурення людей і термінаторів в минуле щоб змінити майбутнє призводять до перелому в полотні часу. Тепер, відправлений Джоном Коннором солдат Кайл Різ, покликаний захищати матір надії людства, потрапляє у світ, в якому все трохи інакше, ніж він думав. Він зустрічає постарілу модель робота Т-800, який був присланий на захист Сари з іншого витка часу. Ворог же тепер наступає не тільки з майбутнього, але й з минулого. Проти Різа, його підзахисної і трохи зношеного Т-800 виступають відразу кілька моделей кіборгів-убивць. Але найстрашнішим було побачити самого Джона Коннора, який прибув один з вельми неприємною місією...-Формат: MKV
    Якість: BDRip-AVC
    Відео кодек: H.264
    Аудіо кодек: AC-3
    Відео: 1024x432 (2,40:1), 1661 kbps, 23,976 fps, 0.157 bit/pixel
    Аудіо: AC3, 48 kHz, 2 ch, 192 kbps-Джерело:

    MediaInfo

    Общее
    Уникальный идентификатор                 : 190890956495208294639952618456082120196 (0x8F9C42CBD43BC10991EB795F2F9D7E04)
    Полное имя                               : \Terminator. Genisys (2015) BDRip-AVC [UKR] [Hurtom].mkv
    Формат                                   : Matroska
    Версия формата                           : Version 2
    Размер файла                             : 1,63 Гбайт
    Продолжительность                        : 2 ч. 5 м.
    Общий поток                              : 1852 Кбит/сек
    Название фильма                          : Термінатор. Генезис / Terminator. Genisys (2015) BDRip-AVC
    Дата кодирования                         : UTC 2015-10-14 04:56:24
    Программа кодирования                    : mkvmerge v4.9.1 ('Ich will') зібрано Jul 11 2011 23:53:15
    Библиотека кодирования                   : libebml v1.2.1 + libmatroska v1.1.1
    Видео
    Идентификатор                            : 1
    Формат                                   : AVC
    Формат/Информация                        : Advanced Video Codec
    Профиль формата                          : High@L4.1
    Параметр CABAC формата                   : Да
    Параметр ReFrames формата                : 13 кадров
    Режим смешивания                         : Header stripping
    Идентификатор кодека                     : V_MPEG4/ISO/AVC
    Продолжительность                        : 2 ч. 5 м.
    Битрейт                                  : 1661 Кбит/сек
    Ширина                                   : 1024 пикселя
    Высота                                   : 432 пикселя
    Соотношение сторон                       : 2,40:1
    Режим частоты кадров                     : Постоянный
    Частота кадров                           : 23,976 кадра/сек
    Цветовое пространство                    : YUV
    Субдискретизация насыщенности            : 4:2:0
    Битовая глубина                          : 8 бит
    Тип развёртки                            : Прогрессивная
    Бит/(Пиксели*Кадры)                      : 0.157
    Размер потока                            : 1,43 Гбайт (88%)
    Заголовок                                : Термінатор. Генезис / Terminator. Genisys (2015) BDRip-AVC
    Библиотека кодирования                   : x264 core 148 r2597 e86f3a1
    Настройки программы                      : cabac=1 / ref=13 / deblock=1:-3:-3 / analyse=0x3:0x113 / me=umh / subme=10 / psy=1 / psy_rd=1.10:0.10 / mixed_ref=1 / me_range=48 / chroma_me=1 / trellis=2 / 8x8dct=1 / cqm=0 / deadzone=21,11 / fast_pskip=0 / chroma_qp_offset=-3 / threads=12 / lookahead_threads=2 / sliced_threads=0 / nr=0 / decimate=0 / interlaced=0 / bluray_compat=0 / constrained_intra=0 / bframes=8 / b_pyramid=2 / b_adapt=2 / b_bias=0 / direct=3 / weightb=1 / open_gop=1 / weightp=2 / keyint=240 / keyint_min=23 / scenecut=40 / intra_refresh=0 / rc=2pass / mbtree=0 / bitrate=1661 / ratetol=1.0 / qcomp=0.70 / qpmin=0 / qpmax=69 / qpstep=4 / cplxblur=20.0 / qblur=0.5 / ip_ratio=1.40 / pb_ratio=1.30 / aq=3:0.90
    Язык                                     : English
    Default                                  : Да
    Forced                                   : Нет
    Аудио
    Идентификатор                            : 2
    Формат                                   : AC-3
    Формат/Информация                        : Audio Coding 3
    Расширение режима                        : CM (complete main)
    Параметр Endianness формата              : Big
    Режим смешивания                         : Header stripping
    Идентификатор кодека                     : A_AC3
    Продолжительность                        : 2 ч. 5 м.
    Вид битрейта                             : Постоянный
    Битрейт                                  : 192 Кбит/сек
    Каналы                                   : 2 канала
    Расположение каналов                     : Front: L R
    Частота                                  : 48,0 КГц
    Битовая глубина                          : 16 бит
    Метод сжатия                             : С потерями
    Размер потока                            : 173 Мбайт (10%)
    Язык                                     : Ukrainian
    Default                                  : Да
    Forced                                   : Нет

    Скріншоти

    Скачать .torrent

    Скачать торрент-файл бесплатно и на максимальной скорости!

    Как скачивать? · Что такое торрент? · Рейтинг и ограничения

    !ВНИМАНИЕ!
    Сайт не распространяет и не хранит электронные версии произведений, а занимается лишь лишь предоставлением доступа к создаваемому пользователями каталогу ссылок на торрент-файлы, которые содержат только списки хеш-сумм, убедительная просьба с жалобами обращаться напрямую к пользователю. Файлы для обмена на трекере предоставлены пользователями сайта, и администрация не несёт ответственности за их содержание. Просьба не заливать файлы, защищенные авторскими правами, а также файлы нелегального содержания!


    _________________


    Последний раз редактировалось: older (2015-10-15 06:23), всего редактировалось 1 раз
    [Профиль] [ЛС]

    older ®

    Создавать темы 15-Окт-2015 12:35 (спустя 6 часов)

           

    [Цитировать]

    Основний час роздачі: 06:00 - 13:00 UA

    _________________
    [Профиль] [ЛС]
    Показать сообщения:    
    Ответить на тему

    Текущее время: Сегодня, в 00:15

    Часовой пояс: GMT + 2



    Вы не можете начинать темы
    Вы не можете отвечать на сообщения
    Вы не можете редактировать свои сообщения
    Вы не можете удалять свои сообщения
    Вы не можете голосовать в опросах
    Вы не можете прикреплять файлы к сообщениям
    Вы не можете скачивать файлы