BitTorrentTracker PerecTracker.org
BitTorrentTracker PerecTracker.org
    
Регистрация  ·  Вход
 
 · 
Забыли пароль?

  • Под маской / Beyond the Mask (Чад Барнс / Chad Burns) [2015, США, боевик, драма, HDRip] DVO

    Ответить на тему
     
    Автор Сообщение

    rechyn

    Создавать темы 15-Окт-2015 02:39

           

    [Цитировать]

    Под маской / Beyond the Mask
    Страна: США
    Жанр: боевик, драма
    Год выпуска: 2015
    Продолжительность: 01:40:35-Перевод: Любительский (двухголосный закадровый)
    Cубтитры: нет
    Режиссер: Чад Барнс / Chad Burns-В ролях: Эндрю Чейни, Джон Рис-Дэвис, Кара Киллмер, Alan Madlane, Адетокумбо Маккормак, Самрат Чакрабарти, Стив Блэквуд, Томас Д. Махард, Чарли Ньюхарт, Энни Китрал и др.-Описание: Стремясь изменить свою жизнь, убийца Ост-Индской компании прячется от своего прошлого в тихой английской деревне, надев мантию англиканского священника. Но это маскировка длится не долго, когда любимая женщина и война заставляют его показать, кто он есть на самом деле. В условиях надвигающегося глобального конфликта, он открывает для себя смысл и источник истинного правосудия и свободы.-Сэмпл: http://sendfile.su/1164673
    Качество видео: HDRip
    Формат видео: AVI
    Видео: XviD, 720х304, 2,35:1, 23,976 кадра/сек, 1612 Кбит/сек
    Аудио: AC-3, 48,0 КГц, 384 Кбит/сек, 2 канала Front: L R

    MediaInfo

    Формат : AVI
    Формат/Информация : Audio Video Interleave
    Размер файла : 1,41 Гбайт
    Продолжительность : 1 ч. 40 м.
    Общий поток : 2005 Кбит/сек
    Название фильма : Bnd.Mask.2015.HDRip
    Режиссёр : ChadBurns
    Программа кодирования : VirtualDubMod 1.5.10.3 | www.virtualdub-fr.org || (build 2550/release)
    Библиотека кодирования : VirtualDub build 35390/release
    Видео
    Идентификатор : 0
    Формат : MPEG-4 Visual
    Профиль формата : Advanced Simple@L5
    Параметр BVOP формата : 2
    Параметр QPel формата : Нет
    Параметр GMC формата : Без точки перехода
    Параметр матрицы формата : Default (MPEG)
    Идентификатор кодека : XVID
    Идентификатор кодека/Подсказка : XviD
    Продолжительность : 1 ч. 40 м.
    Битрейт : 1612 Кбит/сек
    Ширина : 720 пикселей
    Высота : 304 пикселя
    Соотношение сторон : 2,35:1
    Частота кадров : 23,976 кадра/сек
    Цветовое пространство : YUV
    Субдискретизация насыщенности : 4:2:0
    Битовая глубина : 8 бит
    Тип развёртки : Прогрессивная
    Метод сжатия : С потерями
    Бит/(Пиксели*Кадры) : 0.307
    Размер потока : 1,13 Гбайт (80%)
    Библиотека кодирования : XviD 1.2.1 (UTC 2008-12-04)
    Аудио
    Идентификатор : 1
    Формат : AC-3
    Формат/Информация : Audio Coding 3
    Расширение режима : CM (complete main)
    Параметр Endianness формата : Big
    Идентификатор кодека : 2000
    Продолжительность : 1 ч. 40 м.
    Вид битрейта : Постоянный
    Битрейт : 384 Кбит/сек
    Каналы : 2 канала
    Расположение каналов : Front: L R
    Частота : 48,0 КГц
    Метод сжатия : С потерями
    Размер потока : 276 Мбайт (19%)
    Выравнивание : Разделение по промежуткам
    Продолжительность промежутка : 42 мс. (1,00 видеокадр)
    Время предзагрузки промежутка : 500 мс.

    Скриншот c названием фильма

    Скриншоты






    Дополнительная информация

    торрент пере залит из-за исправления ошибок при оформлении раздачи
    Скачать .torrent

    Скачать торрент-файл бесплатно и на максимальной скорости!

    Как скачивать? · Что такое торрент? · Рейтинг и ограничения

    !ВНИМАНИЕ!
    Сайт не распространяет и не хранит электронные версии произведений, а занимается лишь лишь предоставлением доступа к создаваемому пользователями каталогу ссылок на торрент-файлы, которые содержат только списки хеш-сумм, убедительная просьба с жалобами обращаться напрямую к пользователю. Файлы для обмена на трекере предоставлены пользователями сайта, и администрация не несёт ответственности за их содержание. Просьба не заливать файлы, защищенные авторскими правами, а также файлы нелегального содержания!


    _________________
    [Профиль] [ЛС]
    Показать сообщения:    
    Ответить на тему

    Текущее время: Сегодня, в 18:38

    Часовой пояс: GMT + 2



    Вы не можете начинать темы
    Вы не можете отвечать на сообщения
    Вы не можете редактировать свои сообщения
    Вы не можете удалять свои сообщения
    Вы не можете голосовать в опросах
    Вы не можете прикреплять файлы к сообщениям
    Вы не можете скачивать файлы