BitTorrentTracker PerecTracker.org
BitTorrentTracker PerecTracker.org
    
Регистрация  ·  Вход
 
 · 
Забыли пароль?

  • Похороны в полдень / Funeral at Noon / Levaya Bazaharaim (Адам Сэндерсон / Adam Sanderson) [2013, Израиль, драма, HDTVRip] + Sub Rus, Heb + Original Heb

    Ответить на тему
     
    Автор Сообщение

    Light

    Создавать темы 15-Окт-2015 02:39

           

    [Цитировать]

    Похороны в полдень / Funeral at Noon / Levaya Bazaharaim
    Страна: Израиль
    Жанр: драма
    Год выпуска: 2013
    Продолжительность: 01:19:54
    Перевод: Субтитры
    Cубтитры: русские (softsub, ASS), иврит (hardsub)
    Оригинальная аудиодорожка: иврит
    Режиссер: Адам Сэндерсон / Adam Sanderson
    В ролях: Хилла Видор, Натан Авербах, Мейрав Грубер, Юваль Янаи
    Описание: Агарь, молодая женщина, живёт с мужем в небольшом поселении. Она не работает и ни с кем не общается. Одиночество тяготит её. Лишь с мальчиком-соседом Агарь чувствует себя комфортно. И мальчик тоже тянется к ней...
    Доп. информация: Награды Хайфского международного кинофестиваля (2013) и международного средиземноморского кинофестиваля в Монпелье (2013).
    ,
    Сэмпл: http://www.mediafire.com/watch/idw8t5grd0n4tjb/Samp...at_Noon_2013.avi
    Качество видео: HDTVRip
    Формат видео: AVI
    Видео: XviD 624х352 16:9 25 кадров/сек 1092 Кбит/сек
    Аудио: MP3 48 КГц 2 канала 120 Кбит/сек
    Формат субтитров: softsub (ASS)

    Образец субтитров

    Dialogue: 0,0:10:33.48,0:10:38.48,Default,,0,0,0,,- Здравствуйте.\N- Ты дома? - Да.
    Dialogue: 0,0:10:39.52,0:10:44.19,Default,,0,0,0,,- Ты будешь сейчас дома?\N- Да.
    Dialogue: 0,0:10:44.20,0:10:49.43,Default,,0,0,0,,Я должна отвести малыша к врачу.
    Dialogue: 0,0:10:49.76,0:10:54.39,Default,,0,0,0,,Он снова поранился.
    Dialogue: 0,0:10:54.40,0:10:58.67,Default,,0,0,0,,Может быть, ты сможешь приготовить Ифтаху\Nчто-нибудь поесть? Что-нибудь простое.
    Dialogue: 0,0:10:58.67,0:11:02.71,Default,,0,0,0,,Я просто не успела.
    Dialogue: 0,0:11:02.72,0:11:04.97,Default,,0,0,0,,Хорошо?
    Dialogue: 0,0:11:05.07,0:11:07.72,Default,,0,0,0,,- Хорошо.\N- Спасибо.
    Dialogue: 0,0:11:07.75,0:11:11.24,Default,,0,0,0,,Спасибо.
    Dialogue: 0,0:11:49.36,0:11:53.43,Default,,0,0,0,,Ты учился у Эстер Шмерлинг?
    Dialogue: 0,0:11:53.44,0:11:58.44,Default,,0,0,0,,- Какой она была? Хорошей учительницей?\N- Как все.
    Dialogue: 0,0:12:09.72,0:12:12.39,Default,,0,0,0,,Что случилось с твоим братом?
    Dialogue: 0,0:12:12.40,0:12:17.40,Default,,0,0,0,,Он ударился головой о дверь.
    Dialogue: 0,0:12:33.24,0:12:36.75,Default,,0,0,0,,Жарко сегодня.
    Dialogue: 0,0:12:36.76,0:12:41.76,Default,,0,0,0,,Хочешь увидеть что-то?
    Dialogue: 0,0:12:56.32,0:13:01.32,Default,,0,0,0,,Красивая, разве нет?
    Dialogue: 0,0:13:01.40,0:13:06.40,Default,,0,0,0,,Хочешь увидеть, где я нашла её?
    Dialogue: 0,0:13:14.67,0:13:19.67,Default,,0,0,0,,Пойдём.
    Dialogue: 0,0:14:34.32,0:14:37.83,Default,,0,0,0,,Мне нельзя быть здесь.
    Dialogue: 0,0:14:37.84,0:14:42.84,Default,,0,0,0,,Ты не был здесь никогда?
    Dialogue: 0,0:14:43.76,0:14:46.19,Default,,0,0,0,,Нет.
    Dialogue: 0,0:14:46.20,0:14:51.20,Default,,0,0,0,,Не беспокойся, здесь никого нет.\NИдём, я буду охранять тебя.
    Dialogue: 0,0:18:52.52,0:18:56.33,Default,,0,0,0,,Я видел тебя, мальчик.
    Dialogue: 0,0:19:07.72,0:19:12.72,Default,,0,0,0,,Почему ты не со всеми?
    Dialogue: 0,0:19:16.16,0:19:20.81,Default,,0,0,0,,Где ваш лагерь?
    Dialogue: 0,0:19:20.91,0:19:23.60,Default,,0,0,0,,За цитрусовой плантацией.
    Dialogue: 0,0:19:23.64,0:19:28.64,Default,,0,0,0,,- Я не видел его.\N- Потому что он засекречен.

    MediaInfo

    Общее
    Полное имя : Funeral at Noon 2013.avi
    Формат : AVI
    Формат/Информация : Audio Video Interleave
    Размер файла : 700 Мбайт
    Продолжительность : 1 ч. 19 м.
    Режим общего битрейта : Переменный
    Общий поток : 1225 Кбит/сек
    Программа кодирования : VirtualDubMod 1.5.10.2 (build 2540/release)
    Библиотека кодирования : VirtualDubMod build 2540/release
    Видео
    Идентификатор : 0
    Формат : MPEG-4 Visual
    Профиль формата : Advanced Simple@L5
    Параметр BVOP формата : 2
    Параметр QPel формата : Нет
    Параметр GMC формата : Без точки перехода
    Параметр матрицы формата : Default (H.263)
    Режим смешивания : Сжатый битовый поток
    Идентификатор кодека : XVID
    Идентификатор кодека/Подсказка : XviD
    Продолжительность : 1 ч. 19 м.
    Битрейт : 1092 Кбит/сек
    Ширина : 624 пикселя
    Высота : 352 пикселя
    Соотношение сторон : 16:9
    Частота кадров : 25,000 кадров/сек
    Цветовое пространство : YUV
    Субдискретизация насыщенности : 4:2:0
    Битовая глубина : 8 бит
    Тип развёртки : Чересстрочная
    Порядок развёртки : Нижнее поле первое
    Метод сжатия : С потерями
    Бит/(Пиксели*Кадры) : 0.199
    Размер потока : 624 Мбайт (89%)
    Библиотека кодирования : XviD 64
    Аудио
    Идентификатор : 1
    Формат : MPEG Audio
    Версия формата : Version 1
    Профиль формата : Layer 3
    Режим : Joint stereo
    Расширение режима : MS Stereo
    Идентификатор кодека : 55
    Идентификатор кодека/Подсказка : MP3
    Продолжительность : 1 ч. 19 м.
    Вид битрейта : Переменный
    Битрейт : 120 Кбит/сек
    Номинальный битрейт : 128 Кбит/сек
    Каналы : 2 канала
    Частота : 48,0 КГц
    Метод сжатия : С потерями
    Размер потока : 68,5 Мбайт (10%)
    Выравнивание : Соединение по промежуткам
    Продолжительность промежутка : 24 мс. (0,60 видеокадр)
    Время предзагрузки промежутка : 512 мс.
    Библиотека кодирования : LAME3.98r
    Настройки программы : -m j -V 4 -q 2 -lowpass 17 --abr 128

    Скриншот c названием фильма

    Скриншоты




    Скачать .torrent

    Скачать торрент-файл бесплатно и на максимальной скорости!

    Как скачивать? · Что такое торрент? · Рейтинг и ограничения

    !ВНИМАНИЕ!
    Сайт не распространяет и не хранит электронные версии произведений, а занимается лишь лишь предоставлением доступа к создаваемому пользователями каталогу ссылок на торрент-файлы, которые содержат только списки хеш-сумм, убедительная просьба с жалобами обращаться напрямую к пользователю. Файлы для обмена на трекере предоставлены пользователями сайта, и администрация не несёт ответственности за их содержание. Просьба не заливать файлы, защищенные авторскими правами, а также файлы нелегального содержания!


    _________________
    [Профиль] [ЛС]
    Показать сообщения:    
    Ответить на тему

    Текущее время: Сегодня, в 08:11

    Часовой пояс: GMT + 2



    Вы не можете начинать темы
    Вы не можете отвечать на сообщения
    Вы не можете редактировать свои сообщения
    Вы не можете удалять свои сообщения
    Вы не можете голосовать в опросах
    Вы не можете прикреплять файлы к сообщениям
    Вы не можете скачивать файлы