BitTorrentTracker PerecTracker.org
BitTorrentTracker PerecTracker.org
    
Регистрация  ·  Вход
 
 · 
Забыли пароль?

  • Кровные братья делятся всем / Blutsbrüder teilen alles / Friends Forever (Вольфрам Паулус / Wolfram Paulus) [2012, Австрия, Германия, Румыния, драма, приключения, HDTVRip-AVC] VO + Sub Rus + Original Ger

    Ответить на тему
     
    Автор Сообщение

    Light

    Создавать темы 15-Окт-2015 02:39

           

    [Цитировать]

    Кровные братья делятся всем / Blutsbrüder teilen alles / Friends Forever
    Страна: Австрия, Германия, Румыния
    Жанр: драма, приключения
    Год выпуска: 2012
    Продолжительность: 01:21:12
    Перевод: Одноголосый закадровый
    Cубтитры: русские
    Оригинальная аудиодорожка: немецкий
    Режиссер: Вольфрам Паулус / Wolfram Paulus
    В ролях: Лоренц Уиллкомм / Lorenz Willkomm, Йоханнес Нуссбаум / Johannes Nussbaum, Benedikt Hösl, Fanny Krausz, Susanne Lothar, Daniela Nane, Levente Molnár
    Описание: Для тринадцатилетних друзей Алекса и Ферри война началась как увлекательная игра. Это и неудивительно, потому что они живут в отдаленном городке, который игнорируют бомбардировщики союзников. У них есть более захватывающее занятие, чем следить за вражескими самолетами - любовь со страстной Розой. Но, когда бомбы на самом деле начинает падать на их маленький городок, Ферри отправляют на Чешской курорт, а вместе с ним убегает и Алекс. Умеющего красиво петь Алекса сразу приглашают в хор мальчиков, он соглашается с условием, что будет петь вместе с Ферри. Проблемы начинается почти сразу же после того, как Алекс заменяет главного солиста из гитлерюгенд.
    Сэмпл: http://multi-up.com/1071184
    Качество видео: HDTVRip-AVC
    Формат видео: MKV
    Видео: AVC at 2048 Кбит/сек : 1280 x 544 (2.353) at 25.000 fps
    Аудио 1: MPEG Audio at 192 Кбит/сек: 2 канала, 48,0 КГц Language : ru
    Аудио 2: MPEG Audio at 192 Кбит/сек: 2 канала, 48,0 КГц Language : de
    Формат субтитров: softsub (SRT)
    Доп. информация о субтитрах: Русские внешние (Juris)

    MediaInfo

    Общее
    Уникальный идентификатор : 194554012341752769359785160523617554087 (0x925DBD64A50C5CABA346289089BE4EA7)
    Полное имя : F:\С моей озвучкой\Кровные братья делятся всем\Blutsbrüder teilen alles.mkv
    Формат : Matroska
    Версия формата : Version 4 / Version 2
    Размер файла : 1,38 Гбайт
    Продолжительность : 1 ч. 21 м.
    Общий поток : 2427 Кбит/сек
    Дата кодирования : UTC 2015-10-13 22:05:57
    Программа кодирования : mkvmerge v7.9.0 ('Birds') 64bit
    Библиотека кодирования : libebml v1.3.1 + libmatroska v1.4.2
    DURATION : 01:21:12.192000000
    NUMBER_OF_FRAMES : 203008
    NUMBER_OF_BYTES : 116932608
    _STATISTICS_WRITING_APP : mkvmerge v7.9.0 ('Birds') 64bit
    _STATISTICS_WRITING_DATE_UTC : 2015-10-13 22:05:57
    _STATISTICS_TAGS : BPS DURATION NUMBER_OF_FRAMES NUMBER_OF_BYTES
    Видео
    Идентификатор : 1
    Формат : AVC
    Формат/Информация : Advanced Video Codec
    Профиль формата : Baseline@L3.1
    Параметр CABAC формата : Нет
    Параметр ReFrames формата : 1 кадр
    Идентификатор кодека : V_MPEG4/ISO/AVC
    Продолжительность : 1 ч. 21 м.
    Битрейт : 2048 Кбит/сек
    Ширина : 1280 пикселей
    Высота : 544 пикселя
    Соотношение сторон : 2,35:1
    Режим частоты кадров : Постоянный
    Частота кадров : 25,000 кадров/сек
    Цветовое пространство : YUV
    Субдискретизация насыщенности : 4:2:0
    Битовая глубина : 8 бит
    Тип развёртки : Прогрессивная
    Бит/(Пиксели*Кадры) : 0.118
    Размер потока : 1,13 Гбайт (82%)
    Библиотека кодирования : x264 core 112
    Настройки программы : cabac=0 / ref=1 / deblock=1:0:0 / analyse=0x1:0x111 / me=hex / subme=7 / psy=1 / psy_rd=1.00:0.00 / mixed_ref=0 / me_range=16 / chroma_me=1 / trellis=1 / 8x8dct=0 / cqm=0 / deadzone=21,11 / fast_pskip=1 / chroma_qp_offset=-2 / threads=1 / sliced_threads=0 / nr=0 / decimate=1 / interlaced=0 / constrained_intra=0 / bframes=0 / weightp=0 / keyint=250 / keyint_min=25 / scenecut=40 / intra_refresh=0 / rc_lookahead=40 / rc=abr / mbtree=1 / bitrate=2048 / ratetol=1.0 / qcomp=0.60 / qpmin=10 / qpmax=51 / qpstep=4 / ip_ratio=1.41 / aq=1:1.00
    Язык : German
    Default : Да
    Forced : Нет
    DURATION : 01:21:12.200000000
    NUMBER_OF_FRAMES : 121805
    NUMBER_OF_BYTES : 1242948486
    _STATISTICS_WRITING_APP : mkvmerge v7.9.0 ('Birds') 64bit
    _STATISTICS_WRITING_DATE_UTC : 2015-10-13 22:05:57
    _STATISTICS_TAGS : BPS DURATION NUMBER_OF_FRAMES NUMBER_OF_BYTES
    Аудио #1
    Идентификатор : 2
    Формат : MPEG Audio
    Версия формата : Version 1
    Профиль формата : Layer 3
    Режим : Joint stereo
    Идентификатор кодека : A_MPEG/L3
    Идентификатор кодека/Подсказка : MP3
    Продолжительность : 1 ч. 21 м.
    Вид битрейта : Постоянный
    Битрейт : 192 Кбит/сек
    Каналы : 2 канала
    Частота : 48,0 КГц
    Метод сжатия : С потерями
    Размер потока : 112 Мбайт (8%)
    Библиотека кодирования : LAME3.96
    Язык : Russian
    Default : Да
    Forced : Нет
    Аудио #2
    Идентификатор : 3
    Формат : MPEG Audio
    Версия формата : Version 1
    Профиль формата : Layer 3
    Режим : Joint stereo
    Идентификатор кодека : A_MPEG/L3
    Идентификатор кодека/Подсказка : MP3
    Продолжительность : 1 ч. 21 м.
    Вид битрейта : Постоянный
    Битрейт : 192 Кбит/сек
    Каналы : 2 канала
    Частота : 48,0 КГц
    Метод сжатия : С потерями
    Размер потока : 112 Мбайт (8%)
    Язык : German
    Default : Нет
    Forced : Нет

    Скриншоты

    Скачать .torrent

    Скачать торрент-файл бесплатно и на максимальной скорости!

    Как скачивать? · Что такое торрент? · Рейтинг и ограничения

    !ВНИМАНИЕ!
    Сайт не распространяет и не хранит электронные версии произведений, а занимается лишь лишь предоставлением доступа к создаваемому пользователями каталогу ссылок на торрент-файлы, которые содержат только списки хеш-сумм, убедительная просьба с жалобами обращаться напрямую к пользователю. Файлы для обмена на трекере предоставлены пользователями сайта, и администрация не несёт ответственности за их содержание. Просьба не заливать файлы, защищенные авторскими правами, а также файлы нелегального содержания!


    _________________
    [Профиль] [ЛС]
    Показать сообщения:    
    Ответить на тему

    Текущее время: Сегодня, в 19:50

    Часовой пояс: GMT + 2



    Вы не можете начинать темы
    Вы не можете отвечать на сообщения
    Вы не можете редактировать свои сообщения
    Вы не можете удалять свои сообщения
    Вы не можете голосовать в опросах
    Вы не можете прикреплять файлы к сообщениям
    Вы не можете скачивать файлы