BitTorrentTracker PerecTracker.org
BitTorrentTracker PerecTracker.org
    
Регистрация  ·  Вход
 
 · 
Забыли пароль?

  • Труп невесты / Corpse Bride (Тим Бёртон / Tim Burton, Майк Джонсон / Mike Johnson) [2005, мюзикл, фэнтези, мелодрама, BDRip-AVC] Dub (Пифагор) + MVO (Tycoon) + 2xAVO (Визгунов, Гаврилов) + Ukr + Eng + Rus, Eng Sub

    Ответить на тему
     
    Автор Сообщение

    rechyn

    Создавать темы 14-Окт-2015 22:27

           

    [Цитировать]

    Труп невесты / Corpse Bride
    Страна: Великобритания, США
    Жанр: мюзикл, фэнтези, мелодрама
    Продолжительность: 01:17:12
    Год выпуска: 2005
    Перевод 1: Профессиональный (дублированный) Пифагор
    Перевод 2: Профессиональный (Многоголосый закадровый) - Tycoon
    Перевод 3: Авторский (Одноголосый закадровый) - Сергей Визгунов
    Перевод 4: Авторский (Одноголосый закадровый) - Андрей Гаврилов отдельным файлом
    Русские субтитры: есть
    Режиссёр: Тим Бёртон / Tim Burton, Майк Джонсон / Mike Johnson
    Описание: Действие развивается в европейской деревушке XIX века. Главного героя — молодого человека Виктора — силы тьмы утаскивают в преисподнюю и женят там на таинственном Трупе Невесты, в то время как его настоящая невеста Виктория ожидает своего жениха в мире живых. Несмотря на то, что проживание в Царстве мертвых оказывается много интересней, чем его привычный викторианский образ жизни, Виктор понимает, что свою единственную любовь он не променяет ни на что ни в одном из альтернативных миров…
    Доп. информация: Английские субтитры не с исходника.
    Семпл: http://multi-up.com/1071271
    Качество: BDRip-AVC Исходник
    Формат: MKV
    Видео: 1152x648 (16:9), 23.976 fps, AVC, ~2565 Kbps, 0.143 bits/pixel
    Аудио 1: Russian, 48.0 KHz, AC3, 6 ch, 384 Kbps - Пифагор
    Аудио 2: Russian, 48.0 KHz, AC3, 6 ch, 448 Kbps - Tycoon
    Аудио 3: Russian, 48.0 KHz, AC3, 2 ch, 192 Kbps - Сергей Визгунов
    Аудио 4: English, 48.0 KHz, AC3, 6 ch, 448 Kbps
    Аудио 5: Russian, 48.0 KHz, AC3, 6 ch, 384 Kbps - Андрей Гаврилов отдельным файлом
    Аудио 6: Ukrainian, 48.0 KHz, AC3, 2 ch, 192 Kbps отдельным файлом
    Субтитры: русские, английские

    Log

    avs4x264.exe: -L x264_64.exe --pass 2 --bitrate 2565 --preset medium --level 4.1 --ref 10 --deblock -1:-1 --merange 32 --bframes 10 --direct auto --b-adapt 2 --trellis 2 --no-fast-pskip --psy-rd 1.00:0.10 --partitions all --subme 10 --me umh --rc-lookahead 50 --sar 1:1 --stats
    raw [info]: 1152x648p 1:1 @ 24000/1001 fps (cfr)
    x264 [info]: using SAR=1/1
    x264 [info]: using cpu capabilities: MMX2 SSE2Fast LZCNT
    x264 [info]: profile High, level 4.1
    x264 [info]: frame I:969 Avg QP:12.44 size:112065
    x264 [info]: frame P:27097 Avg QP:15.90 size: 27810
    x264 [info]: frame B:82982 Avg QP:19.19 size: 7498
    x264 [info]: consecutive B-frames: 3.3% 4.3% 10.5% 29.2% 18.8% 23.1% 4.8% 3.9% 0.7% 0.6% 0.7%
    x264 [info]: mb I I16..4: 9.4% 67.7% 22.9%
    x264 [info]: mb P I16..4: 1.2% 9.4% 2.0% P16..4: 39.0% 20.8% 14.9% 0.9% 0.4% skip:11.4%
    x264 [info]: mb B I16..4: 0.1% 0.7% 0.2% B16..8: 34.6% 10.2% 2.6% direct: 3.1% skip:48.5% L0:45.0% L1:46.1% BI: 8.9%
    x264 [info]: 8x8 transform intra:72.6% inter:56.8%
    x264 [info]: direct mvs spatial:96.9% temporal:3.1%
    x264 [info]: coded y,uvDC,uvAC intra: 81.8% 78.6% 58.5% inter: 14.7% 12.0% 2.8%
    x264 [info]: i16 v,h,dc,p: 34% 11% 12% 43%
    x264 [info]: i8 v,h,dc,ddl,ddr,vr,hd,vl,hu: 16% 9% 11% 8% 11% 12% 10% 11% 12%
    x264 [info]: i4 v,h,dc,ddl,ddr,vr,hd,vl,hu: 13% 7% 5% 9% 15% 14% 13% 11% 12%
    x264 [info]: i8c dc,h,v,p: 44% 23% 19% 14%
    x264 [info]: Weighted P-Frames: Y:3.3% UV:1.2%
    x264 [info]: ref P L0: 47.3% 7.5% 17.7% 6.8% 5.7% 4.2% 3.9% 2.2% 2.1% 2.0% 0.4% 0.0%
    x264 [info]: ref B L0: 68.4% 13.0% 6.7% 3.6% 2.7% 2.2% 2.0% 0.9% 0.4%
    x264 [info]: ref B L1: 90.6% 9.4%
    x264 [info]: kb/s:2563.83
    x264 [total]: encoded 111048 frames, 6.38 fps, 2563.83 kb/s

    Подробные технические данные

    GeneralUnique ID : 238098502239707953939612839338663829688 (0xB3201A8023280E9FBEEC39E025DD60B8)Complete name : C:\Corpse Bride\Corpse Bride.mkvFormat : MatroskaFormat version : Version 4 / Version 2File size : 2.18 GiBDuration : 1h 17mnOverall bit rate : 4 039 KbpsEncoded date : UTC 2015-07-04 16:51:48Writing application : mkvmerge v8.1.0 ('Psychedelic Postcard') 64bitWriting library : libebml v1.3.1 + libmatroska v1.4.2DURATION : 01:10:03.443000000NUMBER_OF_FRAMES : 839NUMBER_OF_BYTES : 30050_STATISTICS_WRITING_APP : mkvmerge v8.1.0 ('Psychedelic Postcard') 64bit_STATISTICS_WRITING_DATE_UT : 2015-07-04 16:51:48_STATISTICS_TAGS : BPS DURATION NUMBER_OF_FRAMES NUMBER_OF_BYTES
    VideoID : 1Format : AVCFormat/Info : Advanced Video CodecFormat profile : High@L4.1Format settings, CABAC : YesFormat settings, ReFrames : 10 framesCodec ID : V_MPEG4/ISO/AVCDuration : 1h 17mnBit rate : 2 565 KbpsWidth : 1 152 pixelsHeight : 648 pixelsDisplay aspect ratio : 16:9Frame rate mode : ConstantFrame rate : 23.976 fpsColor space : YUVChroma subsampling : 4:2:0Bit depth : 8 bitsScan type : ProgressiveBits/(Pixel*Frame) : 0.143Stream size : 1.34 GiB (62%)Writing library : x264 core 146 r2538 121396cEncoding settings : cabac=1 / ref=10 / deblock=1:-1:-1 / analyse=0x3:0x133 / me=umh / subme=10 / psy=1 / psy_rd=1.00:0.10 / mixed_ref=1 / me_range=32 / chroma_me=1 / trellis=2 / 8x8dct=1 / cqm=0 / deadzone=21,11 / fast_pskip=0 / chroma_qp_offset=-3 / threads=6 / lookahead_threads=1 / sliced_threads=0 / nr=0 / decimate=1 / interlaced=0 / bluray_compat=0 / constrained_intra=0 / bframes=10 / b_pyramid=2 / b_adapt=2 / b_bias=0 / direct=3 / weightb=1 / open_gop=0 / weightp=2 / keyint=250 / keyint_min=23 / scenecut=40 / intra_refresh=0 / rc_lookahead=50 / rc=2pass / mbtree=1 / bitrate=2565 / ratetol=1.0 / qcomp=0.60 / qpmin=0 / qpmax=69 / qpstep=4 / cplxblur=20.0 / qblur=0.5 / ip_ratio=1.40 / aq=1:1.00Language : EnglishDefault : YesForced : No
    Audio #1ID : 2Format : AC-3Format/Info : Audio Coding 3Mode extension : CM (complete main)Format settings, Endianness : BigCodec ID : A_AC3Duration : 1h 17mnBit rate mode : ConstantBit rate : 384 KbpsChannel(s) : 6 channelsChannel positions : Front: L C R, Side: L R, LFESampling rate : 48.0 KHzCompression mode : LossyStream size : 212 MiB (10%)Title : ПифагорLanguage : RussianDefault : YesForced : No
    Audio #2ID : 3Format : AC-3Format/Info : Audio Coding 3Mode extension : CM (complete main)Format settings, Endianness : BigCodec ID : A_AC3Duration : 1h 17mnBit rate mode : ConstantBit rate : 448 KbpsChannel(s) : 6 channelsChannel positions : Front: L C R, Side: L R, LFESampling rate : 48.0 KHzCompression mode : LossyStream size : 247 MiB (11%)Title : TycoonLanguage : RussianDefault : NoForced : No
    Audio #3ID : 4Format : AC-3Format/Info : Audio Coding 3Mode extension : CM (complete main)Format settings, Endianness : BigCodec ID : A_AC3Duration : 1h 17mnBit rate mode : ConstantBit rate : 192 KbpsChannel(s) : 2 channelsChannel positions : Front: L RSampling rate : 48.0 KHzCompression mode : LossyStream size : 106 MiB (5%)Title : Сергей ВизгуновLanguage : RussianDefault : NoForced : No
    Audio #4ID : 5Format : AC-3Format/Info : Audio Coding 3Mode extension : CM (complete main)Format settings, Endianness : BigCodec ID : A_AC3Duration : 1h 17mnBit rate mode : ConstantBit rate : 448 KbpsChannel(s) : 6 channelsChannel positions : Front: L C R, Side: L R, LFESampling rate : 48.0 KHzCompression mode : LossyStream size : 247 MiB (11%)Language : EnglishDefault : NoForced : No
    Text #1ID : 6Format : UTF-8Codec ID : S_TEXT/UTF8Codec ID/Info : UTF-8 Plain TextTitle : ТусооnLanguage : RussianDefault : NoForced : No
    Text #2ID : 7Format : UTF-8Codec ID : S_TEXT/UTF8Codec ID/Info : UTF-8 Plain TextLanguage : EnglishDefault : NoForced : No
    Menu00:00:00.000 : en:00:00:00.00000:02:21.308 : en:00:02:21.30800:06:29.389 : en:00:06:29.38900:10:46.145 : en:00:10:46.14500:14:31.204 : en:00:14:31.20400:18:53.966 : en:00:18:53.96600:20:32.731 : en:00:20:32.73100:23:58.771 : en:00:23:58.77100:27:20.806 : en:00:27:20.80600:30:27.659 : en:00:30:27.65900:33:22.167 : en:00:33:22.16700:36:17.509 : en:00:36:17.50900:39:53.391 : en:00:39:53.39100:43:21.098 : en:00:43:21.09800:46:19.944 : en:00:46:19.94400:48:54.598 : en:00:48:54.59800:52:02.953 : en:00:52:02.95300:54:50.454 : en:00:54:50.45400:56:57.080 : en:00:56:57.08001:00:15.445 : en:01:00:15.44501:03:45.488 : en:01:03:45.48801:07:41.057 : en:01:07:41.05701:11:12.101 : en:01:11:12.10101:13:26.402 : en:01:13:26.402

    Скриншоты

    Скачать .torrent

    Скачать торрент-файл бесплатно и на максимальной скорости!

    Как скачивать? · Что такое торрент? · Рейтинг и ограничения

    !ВНИМАНИЕ!
    Сайт не распространяет и не хранит электронные версии произведений, а занимается лишь лишь предоставлением доступа к создаваемому пользователями каталогу ссылок на торрент-файлы, которые содержат только списки хеш-сумм, убедительная просьба с жалобами обращаться напрямую к пользователю. Файлы для обмена на трекере предоставлены пользователями сайта, и администрация не несёт ответственности за их содержание. Просьба не заливать файлы, защищенные авторскими правами, а также файлы нелегального содержания!


    _________________
    [Профиль] [ЛС]
    Показать сообщения:    
    Ответить на тему

    Текущее время: Сегодня, в 22:10

    Часовой пояс: GMT + 2



    Вы не можете начинать темы
    Вы не можете отвечать на сообщения
    Вы не можете редактировать свои сообщения
    Вы не можете удалять свои сообщения
    Вы не можете голосовать в опросах
    Вы не можете прикреплять файлы к сообщениям
    Вы не можете скачивать файлы