BitTorrentTracker PerecTracker.org
BitTorrentTracker PerecTracker.org
    
Регистрация  ·  Вход
 
 · 
Забыли пароль?

  • Аммар: Дьявольский культ / Ammar: Cin Tarikati (Озкур Бакар / Ozgur Bakar) [2014, Турция, Ужасы, DVDRip] DVO (datynet & Galina Vasyukova)

    Ответить на тему
     
    Автор Сообщение

    Light

    Создавать темы 14-Окт-2015 22:27

           

    [Цитировать]

    Аммар: Дьявольский культ / Ammar: Cin TarikatiСтрана: Турция
    Жанр: Ужасы
    Год выпуска: 2015
    Продолжительность: 01:21:23
    Перевод: Любительский (двухголосый закадровый) datynet & Galina Vasyukova;перевод: Куценко
    Cубтитры: нет
    Оригинальная аудиодорожка: турецкий
    Режиссер: Озкур Бакар / Ozgur Bakar
    В ролях: Озан Акбаба, Дилшах Демир, Селим Эрдоган, Берке Хюркан, Туран Оздемир, Дуйгу Параджыкоглу, Сезаи Параджиоглу
    Описание: Фериде и её соседка решили провести выходные с друзьями в загородном доме. Но, кто мог подумать, что обычный уик-энд превратиться в демонический ужас со сверхъестественными головоломками с пугающими событиями в лабиринте страха.
    Сэмпл: http://sendfile.su/1157476
    Качество видео: DVDRip
    Формат видео: AVI
    Видео: 720x400 (1.80:1), 24 fps, XviD build 64 ~2017 kbps avg, 0.29 bit/pixel
    Аудио: 44.1 kHz, AC3 Dolby Digital, 2/0 (L,R) ch, ~192 kbps
    Аудио 2: 44.1 kHz, AC3 Dolby Digital, 2/0 (L,R) ch, ~192 kbps

    MediaInfo

    Общее
    Полное имя : G:\Ammar (2014)\Ammar (2014) DVDRip .avi
    Формат : AVI
    Формат/Информация : Audio Video Interleave
    Профиль формата : OpenDML
    Размер файла : 1,37 Гбайт
    Продолжительность : 1 ч. 21 м.
    Общий поток : 2408 Кбит/сек
    Программа кодирования : XviD4PSP 6.0 / 54.29.105
    Видео
    Идентификатор : 0
    Формат : xvid
    Идентификатор кодека : xvid
    Продолжительность : 1 ч. 21 м.
    Битрейт : 2006 Кбит/сек
    Ширина : 720 пикселей
    Высота : 400 пикселей
    Соотношение сторон : 16:9
    Частота кадров : 24,000 кадра/сек
    Бит/(Пиксели*Кадры) : 0.290
    Размер потока : 1,14 Гбайт (83%)
    Аудио #1
    Идентификатор : 1
    Формат : AC-3
    Формат/Информация : Audio Coding 3
    Расширение режима : CM (complete main)
    Параметр Endianness формата : Big
    Идентификатор кодека : 2000
    Продолжительность : 1 ч. 21 м.
    Вид битрейта : Постоянный
    Битрейт : 192 Кбит/сек
    Каналы : 2 канала
    Расположение каналов : Front: L R
    Частота : 44,1 КГц
    Битовая глубина : 16 бит
    Метод сжатия : С потерями
    Размер потока : 112 Мбайт (8%)
    Выравнивание : Соединение по промежуткам
    Продолжительность промежутка : 35 мс. (0,84 видеокадр)
    Аудио #2
    Идентификатор : 2
    Формат : AC-3
    Формат/Информация : Audio Coding 3
    Расширение режима : CM (complete main)
    Параметр Endianness формата : Big
    Идентификатор кодека : 2000
    Продолжительность : 1 ч. 21 м.
    Вид битрейта : Постоянный
    Битрейт : 192 Кбит/сек
    Каналы : 2 канала
    Расположение каналов : Front: L R
    Частота : 44,1 КГц
    Битовая глубина : 16 бит
    Метод сжатия : С потерями
    Размер потока : 112 Мбайт (8%)
    Выравнивание : Соединение по промежуткам
    Продолжительность промежутка : 35 мс. (0,84 видеокадр)

    Скриншоты













    Скачать .torrent

    Скачать торрент-файл бесплатно и на максимальной скорости!

    Как скачивать? · Что такое торрент? · Рейтинг и ограничения

    !ВНИМАНИЕ!
    Сайт не распространяет и не хранит электронные версии произведений, а занимается лишь лишь предоставлением доступа к создаваемому пользователями каталогу ссылок на торрент-файлы, которые содержат только списки хеш-сумм, убедительная просьба с жалобами обращаться напрямую к пользователю. Файлы для обмена на трекере предоставлены пользователями сайта, и администрация не несёт ответственности за их содержание. Просьба не заливать файлы, защищенные авторскими правами, а также файлы нелегального содержания!


    _________________
    [Профиль] [ЛС]
    Показать сообщения:    
    Ответить на тему

    Текущее время: Сегодня, в 02:37

    Часовой пояс: GMT + 2



    Вы не можете начинать темы
    Вы не можете отвечать на сообщения
    Вы не можете редактировать свои сообщения
    Вы не можете удалять свои сообщения
    Вы не можете голосовать в опросах
    Вы не можете прикреплять файлы к сообщениям
    Вы не можете скачивать файлы