BitTorrentTracker PerecTracker.org
BitTorrentTracker PerecTracker.org
    
Регистрация  ·  Вход
 
 · 
Забыли пароль?

  • Вишневі ночі / Вишневые ночи (Аркадій Мікульський) [1992 р., драма, мелодрама, DVDRip] Original

    Ответить на тему
     
    Автор Сообщение

    older

    Создавать темы 14-Окт-2015 20:18

           

    [Цитировать]

    Вишневі ночі / Вишневые ночи
    Рік випуску: 1992
    Країна: Україна
    Кіностудія / кінокомпанія: національно-культурний виробничий центр (НКВЦ) "Рось"
    Жанр: драма, мелодрама
    Тривалість: 01:28:20
    Субтитри: відсутні
    Оригінальна аудіодоріжка: українська-Режисер: Аркадій Мікульський
    Сценарій: Василь Портяк, Борис Харчук- -Актори: Інна Капінос, Володимир Шевельков, Костянтин Степанков, Леонід Дьячков, Михайло Голубович, Микола Олійник, Олена Оглобліна, Лідія Моргацова-Сюжет: Події фільму розгортаються в останні роки Другої Світової війни в західноукраїнському містечку. Німці відійшли далеко на захід, й містом панували радянські війська, принісши братню мову, порядок і атмосферу напруженого очікування лиха.
    Життя провінційного міста, на перший погляд, мало розмірений та мирний плин, який переривався незрозумілими перестрілками на вулицях та несподіваними зникненнями колег по роботі. Але ця умовна тиша була всього-навсього прикриттям для підпільної діяльності армії нескорених, яка існувала поруч з радянською.
    Це була армія тіней, що складалася з селян та військових, цивільних городян, які кинули виклик власним патріотизмом монстру на ймення НКВС. Боротьба УПА з окупантами продовжувалась би й далі, якби не здатність людини до кохання та зради.
    Хто би міг уявити, що в задушливій енкаведистській атмосфері знайдеться місце для самовідданих почуттів, що виникли між представниками двох ворогуючих між собою сторін.
    Але певно, доля усіх кохань така: проростати життям між кам`яних плит непорозуміння, бо кохання - це і є життя, або сама лише надія на нього, що одна тільки й лишилася у лейтенанта НКВС Славка та зв`язкової УПА Оленки.
    В передчутті арешту, дівчина задається питанням: "..чому я не маю права жити, маю право тільки вмирати?". На що побратим з УПА відказує їй:
    - "..права дають рабам, вільні беруть права".-Формат: AVI
    Якість: DVDRip
    Відео кодек: DivX 5
    Відео: 640x464 (1,379), 1712 kbps, 25,000 fps, 0.231 bit/pixel
    Аудіо: AC3, 48 kHz, 2 ch, 256 kbps-Джерело:

    MediaInfo

    Общее
    Полное имя                               : \Vyshnevi.nochi.(1993).DVDRip.DIZHKA.TV.avi
    Формат                                   : AVI
    Формат/Информация                        : Audio Video Interleave
    Размер файла                             : 1,22 Гбайт
    Продолжительность                        : 1 ч. 28 м.
    Общий поток                              : 1977 Кбит/сек
    Название фильма                          : Vyshnevi.nochi.(1993).DVDRip.[DIZHKA.TV]
    Режиссёр                                 : DIZHKA.TV
    Программа кодирования                    : VirtualDubMod 1.5.10.2 (build 2540/release)
    Видео
    Идентификатор                            : 0
    Формат                                   : MPEG-4 Visual
    Параметр BVOP формата                    : 1
    Параметр QPel формата                    : Нет
    Параметр GMC формата                     : Без точки перехода
    Параметр матрицы формата                 : Default (H.263)
    Режим смешивания                         : Сжатый битовый поток
    Идентификатор кодека                     : DX50
    Идентификатор кодека/Подсказка           : DivX 5
    Продолжительность                        : 1 ч. 28 м.
    Битрейт                                  : 1712 Кбит/сек
    Ширина                                   : 640 пикселей
    Высота                                   : 464 пикселя
    Соотношение сторон                       : 1,379
    Частота кадров                           : 25,000 кадров/сек
    Цветовое пространство                    : YUV
    Субдискретизация насыщенности            : 4:2:0
    Битовая глубина                          : 8 бит
    Тип развёртки                            : Прогрессивная
    Метод сжатия                             : С потерями
    Бит/(Пиксели*Кадры)                      : 0.231
    Размер потока                            : 1,06 Гбайт (87%)
    Библиотека кодирования                   : DivX 6.8.5 (UTC 2009-08-20)
    Аудио
    Идентификатор                            : 1
    Формат                                   : AC-3
    Формат/Информация                        : Audio Coding 3
    Расширение режима                        : CM (complete main)
    Параметр Endianness формата              : Big
    Идентификатор кодека                     : 2000
    Продолжительность                        : 1 ч. 28 м.
    Вид битрейта                             : Постоянный
    Битрейт                                  : 256 Кбит/сек
    Каналы                                   : 2 канала
    Расположение каналов                     : Front: L R
    Частота                                  : 48,0 КГц
    Битовая глубина                          : 16 бит
    Метод сжатия                             : С потерями
    Размер потока                            : 162 Мбайт (13%)
    Выравнивание                             : Разделение по промежуткам
    Продолжительность промежутка             : 40  мс. (1,00 видеокадр)
    Время предзагрузки промежутка            : 500  мс.

    Скріншоти

    Скачать .torrent

    Скачать торрент-файл бесплатно и на максимальной скорости!

    Как скачивать? · Что такое торрент? · Рейтинг и ограничения

    !ВНИМАНИЕ!
    Сайт не распространяет и не хранит электронные версии произведений, а занимается лишь лишь предоставлением доступа к создаваемому пользователями каталогу ссылок на торрент-файлы, которые содержат только списки хеш-сумм, убедительная просьба с жалобами обращаться напрямую к пользователю. Файлы для обмена на трекере предоставлены пользователями сайта, и администрация не несёт ответственности за их содержание. Просьба не заливать файлы, защищенные авторскими правами, а также файлы нелегального содержания!


    _________________
    [Профиль] [ЛС]
    Показать сообщения:    
    Ответить на тему

    Текущее время: Сегодня, в 08:13

    Часовой пояс: GMT + 2



    Вы не можете начинать темы
    Вы не можете отвечать на сообщения
    Вы не можете редактировать свои сообщения
    Вы не можете удалять свои сообщения
    Вы не можете голосовать в опросах
    Вы не можете прикреплять файлы к сообщениям
    Вы не можете скачивать файлы