BitTorrentTracker PerecTracker.org
BitTorrentTracker PerecTracker.org
    
Регистрация  ·  Вход
 
 · 
Забыли пароль?

  • В одиночку / Одиночка / En solitaire (Кристоф Оффенштейн / Christophe Offenstein) [2013, Франция, приключения, драма, HDRip] MVO (1 канал) + Original Fre

    Ответить на тему
     
    Автор Сообщение

    Light

    Создавать темы 14-Окт-2015 18:15

           

    [Цитировать]

    В одиночку / Одиночка / En solitaire
    Страна: Франция
    Жанр: приключения, драма
    Год выпуска: 2013
    Продолжительность: 01:40:46
    Перевод: Профессиональный (многоголосый закадровый) 1 канал
    Cубтитры: нет
    Оригинальная аудиодорожка: французский
    Режиссер: Кристоф Оффенштейн / Christophe Offenstein
    В ролях: Франсуа Клюзе, Сами Сегир, Гийом Кане, Карин Ванасс, Вирджиния Эфира, Жан-Поль Рув
    Описание: Янн Кермадек спонтанно отправляется в кругосветное путешествие на парусной регате "Венди Глоб" в одиночку, вместо попавшего в аварию напарника. Его дела идут неплохо - яхтсмен успешно преодолевает трудности одиночного плаванья и имеет все шансы стать победителем гонок. Но неожиданный пассажир, шестнадцатилетний Мано, тайно прокравшийся на лодку в надежде добраться до Франции, ставит под угрозу дальнейшее участие Янна в соревнованиях. Как поступит главный герой в этой непростой ситуации? Об этом, собственно, фильм.
    Сэмпл: http://multi-up.com/1071233
    Качество видео: HDRip
    Формат видео: AVI
    Видео: MPEG4, XviD, 720x304 (2.35:1), 23.976 fps, 1 413 Kbps (0.269 bit/pixel)
    Аудио: AC-3, 48.0 KHz, 2 ch, 192 Kbps, CBR - русский
    Аудио 2: AC-3, 48.0 KHz, 6 ch, 448 Kbps, CBR - французский

    MediaInfo

    Общее
    Полное имя : K:\Одиночка.avi
    Формат : AVI
    Формат/Информация : Audio Video Interleave
    Размер файла : 1,46 Гбайт
    Продолжительность : 1 ч. 40 м.
    Общий поток : 2067 Кбит/сек
    Название фильма : В одиночку / Одиночка / En solitaire (2013)
    Программа кодирования : VirtualDubMod 1.5.10.2 (build 2540/release)
    Библиотека кодирования : VirtualDubMod build 2540/release
    Авторское право : miha2154
    Видео
    Идентификатор : 0
    Формат : MPEG-4 Visual
    Профиль формата : Advanced Simple@L5
    Параметр BVOP формата : 1
    Параметр QPel формата : Нет
    Параметр GMC формата : Без точки перехода
    Параметр матрицы формата : Выборочная
    Идентификатор кодека : XVID
    Идентификатор кодека/Подсказка : XviD
    Продолжительность : 1 ч. 40 м.
    Битрейт : 1413 Кбит/сек
    Ширина : 720 пикселей
    Высота : 304 пикселя
    Соотношение сторон : 2,35:1
    Частота кадров : 23,976 кадра/сек
    Цветовое пространство : YUV
    Субдискретизация насыщенности : 4:2:0
    Битовая глубина : 8 бит
    Тип развёртки : Прогрессивная
    Метод сжатия : С потерями
    Бит/(Пиксели*Кадры) : 0.269
    Размер потока : 1019 Мбайт (68%)
    Библиотека кодирования : XviD 65
    Аудио #1
    Идентификатор : 1
    Формат : AC-3
    Формат/Информация : Audio Coding 3
    Расширение режима : CM (complete main)
    Параметр Endianness формата : Big
    Идентификатор кодека : 2000
    Продолжительность : 1 ч. 40 м.
    Вид битрейта : Постоянный
    Битрейт : 192 Кбит/сек
    Каналы : 2 канала
    Расположение каналов : Front: L R
    Частота : 48,0 КГц
    Метод сжатия : С потерями
    Размер потока : 138 Мбайт (9%)
    Выравнивание : Разделение по промежуткам
    Продолжительность промежутка : 42 мс. (1,00 видеокадр)
    Время предзагрузки промежутка : 500 мс.
    Заголовок : Профессиональный (многоголосый закадровый) 1 канал
    Аудио #2
    Идентификатор : 2
    Формат : AC-3
    Формат/Информация : Audio Coding 3
    Расширение режима : CM (complete main)
    Параметр Endianness формата : Big
    Идентификатор кодека : 2000
    Продолжительность : 1 ч. 40 м.
    Вид битрейта : Постоянный
    Битрейт : 448 Кбит/сек
    Каналы : 6 каналов
    Расположение каналов : Front: L C R, Side: L R, LFE
    Частота : 48,0 КГц
    Метод сжатия : С потерями
    Размер потока : 323 Мбайт (22%)
    Выравнивание : Разделение по промежуткам
    Продолжительность промежутка : 42 мс. (1,00 видеокадр)
    Время предзагрузки промежутка : 500 мс.
    Заголовок : Французский

    Скриншоты


    Скачать .torrent

    Скачать торрент-файл бесплатно и на максимальной скорости!

    Как скачивать? · Что такое торрент? · Рейтинг и ограничения

    !ВНИМАНИЕ!
    Сайт не распространяет и не хранит электронные версии произведений, а занимается лишь лишь предоставлением доступа к создаваемому пользователями каталогу ссылок на торрент-файлы, которые содержат только списки хеш-сумм, убедительная просьба с жалобами обращаться напрямую к пользователю. Файлы для обмена на трекере предоставлены пользователями сайта, и администрация не несёт ответственности за их содержание. Просьба не заливать файлы, защищенные авторскими правами, а также файлы нелегального содержания!


    _________________
    [Профиль] [ЛС]
    Показать сообщения:    
    Ответить на тему

    Текущее время: Сегодня, в 12:18

    Часовой пояс: GMT + 2



    Вы не можете начинать темы
    Вы не можете отвечать на сообщения
    Вы не можете редактировать свои сообщения
    Вы не можете удалять свои сообщения
    Вы не можете голосовать в опросах
    Вы не можете прикреплять файлы к сообщениям
    Вы не можете скачивать файлы