BitTorrentTracker PerecTracker.org
BitTorrentTracker PerecTracker.org
    
Регистрация  ·  Вход
 
 · 
Забыли пароль?

  • Секретний ешелон / Секретный эшелон (Ярослав Лупій) [1993 р., драма, історія, DVDRip] Original

    Ответить на тему
     
    Автор Сообщение

    older

    Создавать темы 14-Окт-2015 13:40

           

    [Цитировать]

    Секретний ешелон / Секретный эшелон
    Рік випуску: 1993
    Країна: Україна
    Кіностудія / кінокомпанія: Благовіст
    Жанр: драма, історія
    Тривалість: 1:29:10
    Субтитри: відсутні
    Оригінальна аудіодоріжка: українська-Режисер: Ярослав Лупій
    Сценарій: Ярослав Лупій-Реліз на DVD: 11 лютого 2010, «Флагман-Трейд»
    Обмеження за віком: 12+- -Актори: Денис Карасьов, Олена Кондратьєва, Наталка Коренченко, Михайло Горносталь, Всеволод Сафонов, Борислав Брондуков-Сюжет: Історія фронтовика Святослава Явора. Він наздогоняє секретний ешелон, що вивозить на північ українських жінок, репресованих тоталітарним режимом, серед них його дружина і донька. Події фільму грунтуються на достовірних фактах повоєнної історії України 1947-1948 років.-Формат: AVI
    Якість: DVDRip
    Відео кодек: DivX 5
    Відео: 720x448 (16:10), 1861 kbps, 25,000 fps, 0.239 bit/pixel
    Аудіо: 48,0 kHz, MPEG Layer 3, 2 ch, 128.00 kbps-Джерело: &

    Реліз

    Подяка пану: myroslav'у за україномовну звукову доріжку, взяту з його релізу.

    MediaInfo

    Общее
    Полное имя                               : \Sekretniy eshelon (1993) DVDRip.avi
    Формат                                   : AVI
    Формат/Информация                        : Audio Video Interleave
    Размер файла                             : 1,29 Гбайт
    Продолжительность                        : 1 ч. 29 м.
    Общий поток                              : 2066 Кбит/сек
    Программа кодирования                    : VirtualDubModUkr 1.5.10.2 (build 2542/release)
    Библиотека кодирования                   : VirtualDubMod build 2542/release
    Видео
    Идентификатор                            : 0
    Формат                                   : MPEG-4 Visual
    Параметр BVOP формата                    : 1
    Параметр QPel формата                    : Нет
    Параметр GMC формата                     : Без точки перехода
    Параметр матрицы формата                 : Default (H.263)
    Режим смешивания                         : Сжатый битовый поток
    Идентификатор кодека                     : DX50
    Идентификатор кодека/Подсказка           : DivX 5
    Продолжительность                        : 1 ч. 29 м.
    Битрейт                                  : 1928 Кбит/сек
    Ширина                                   : 720 пикселей
    Высота                                   : 448 пикселей
    Соотношение сторон                       : 16:10
    Частота кадров                           : 25,000 кадров/сек
    Цветовое пространство                    : YUV
    Субдискретизация насыщенности            : 4:2:0
    Битовая глубина                          : 8 бит
    Тип развёртки                            : Прогрессивная
    Метод сжатия                             : С потерями
    Бит/(Пиксели*Кадры)                      : 0.239
    Размер потока                            : 1,20 Гбайт (93%)
    Библиотека кодирования                   : DivX 6.8.3-6.8.4 (UTC 2008-06-07)
    Аудио
    Идентификатор                            : 1
    Формат                                   : MPEG Audio
    Версия формата                           : Version 1
    Профиль формата                          : Layer 3
    Режим                                    : Joint stereo
    Расширение режима                        : MS Stereo
    Идентификатор кодека                     : 55
    Идентификатор кодека/Подсказка           : MP3
    Продолжительность                        : 1 ч. 29 м.
    Вид битрейта                             : Постоянный
    Битрейт                                  : 128 Кбит/сек
    Каналы                                   : 2 канала
    Частота                                  : 48,0 КГц
    Метод сжатия                             : С потерями
    Размер потока                            : 81,6 Мбайт (6%)
    Выравнивание                             : Соединение по промежуткам
    Продолжительность промежутка             : 40  мс. (1,00 видеокадр)
    Время предзагрузки промежутка            : 504  мс.

    Скріншоти

    Скачать .torrent

    Скачать торрент-файл бесплатно и на максимальной скорости!

    Как скачивать? · Что такое торрент? · Рейтинг и ограничения

    !ВНИМАНИЕ!
    Сайт не распространяет и не хранит электронные версии произведений, а занимается лишь лишь предоставлением доступа к создаваемому пользователями каталогу ссылок на торрент-файлы, которые содержат только списки хеш-сумм, убедительная просьба с жалобами обращаться напрямую к пользователю. Файлы для обмена на трекере предоставлены пользователями сайта, и администрация не несёт ответственности за их содержание. Просьба не заливать файлы, защищенные авторскими правами, а также файлы нелегального содержания!


    _________________
    [Профиль] [ЛС]
    Показать сообщения:    
    Ответить на тему

    Текущее время: Сегодня, в 11:54

    Часовой пояс: GMT + 2



    Вы не можете начинать темы
    Вы не можете отвечать на сообщения
    Вы не можете редактировать свои сообщения
    Вы не можете удалять свои сообщения
    Вы не можете голосовать в опросах
    Вы не можете прикреплять файлы к сообщениям
    Вы не можете скачивать файлы