BitTorrentTracker PerecTracker.org
BitTorrentTracker PerecTracker.org
    
Регистрация  ·  Вход
 
 · 
Забыли пароль?

  • Залізна сотня / The Company of Heroes (Олесь Янчук) [2004 р., історичний, трагедія, DVDRip] Original

    Ответить на тему
     
    Автор Сообщение

    older

    Создавать темы 14-Окт-2015 08:55

           

    [Цитировать]

    До Дня створення УПА і Дня захисника України - присвячується!--Залізна сотня / The Company of Heroes--Рік випуску: 2004
    Країна: Україна
    Кіностудія / кінокомпанія: кіностудія ім. Олександра Довженка
    Жанр: історичний, трагедія
    Тривалість: 01:34:52
    Субтитри: відсутні
    Оригінальна аудіодоріжка: українська-Режисер: Олесь Янчук
    Продюсер: Юрій Борецький, Орися Борець, Олесь Янчук
    Сценарій: Василь Портяк, Михайло Шаєвич, Олександр Шевченко-Світова прем'єра: 24 серпня 2004
    Прем'єра в Україні: 24 серпня 2004
    Обмеження за віком: 16+-  -Актори: Микола Боклан (Громенко), Олег Примагенов (Сова), Ігор Пісний (Чумак), Олексій Зубков (Павук), В'ячеслав Василюк (Когут), Дмитро Терещук (Міша), Катерина Кістень (Ксеня), Олеся Жураківська (Катруся), Тарас Постніков (Лагідний), Тарас Жирко (отець Кадило), Іван Гаврилюк (Рен), Ярослав Мука (лікар Шувар), Євген Нищук (Зорян), Олег Драч (Барць)-Сюжет: Події кінофільму "Залізна сотня" відбуваються у 1944 – 1947 роках на території Західної України та Східної Польщі. Герої фільму, побудовано на реальних фактах – молоді українці, які свідомо прийшли до лав Української Повстанської Армії. В жорстоких тенетах війни, де життя і смерть завжди поруч, вони пройшли свій шлях до кінця і залишились незбореними і юними…-Формат: AVI
    Якість: DVDRip
    Відео кодек: XviD
    Аудіо кодек: MP2
    Відео: 720x448 (16:10), 1861 kbps, 25,000 fps, 0.231 bit/pixel
    Аудіо: 44,1 kHz, MPEG Layer 2, 2 ch, 224.00 kbps-Джерело:

    MediaInfo

    Общее
    Полное имя                               : \zalizna sotnia.avi
    Формат                                   : AVI
    Формат/Информация                        : Audio Video Interleave
    Размер файла                             : 1,39 Гбайт
    Продолжительность                        : 1 ч. 34 м.
    Общий поток                              : 2095 Кбит/сек
    Программа кодирования                    : VirtualDubModRus 1.5.10.2 (build 2542/release)
    Библиотека кодирования                   : VirtualDubMod build 2542/release
    Видео
    Идентификатор                            : 0
    Формат                                   : MPEG-4 Visual
    Профиль формата                          : Advanced Simple@L5
    Параметр BVOP формата                    : 1
    Параметр QPel формата                    : Нет
    Параметр GMC формата                     : Без точки перехода
    Параметр матрицы формата                 : Выборочная
    Идентификатор кодека                     : XVID
    Идентификатор кодека/Подсказка           : XviD
    Продолжительность                        : 1 ч. 34 м.
    Битрейт                                  : 1861 Кбит/сек
    Ширина                                   : 720 пикселей
    Высота                                   : 448 пикселей
    Соотношение сторон                       : 16:10
    Частота кадров                           : 25,000 кадров/сек
    Цветовое пространство                    : YUV
    Субдискретизация насыщенности            : 4:2:0
    Битовая глубина                          : 8 бит
    Тип развёртки                            : Прогрессивная
    Метод сжатия                             : С потерями
    Бит/(Пиксели*Кадры)                      : 0.231
    Размер потока                            : 1,23 Гбайт (89%)
    Библиотека кодирования                   : XviD 1.1.2 (UTC 2006-11-01)
    Аудио
    Идентификатор                            : 1
    Формат                                   : MPEG Audio
    Версия формата                           : Version 1
    Профиль формата                          : Layer 2
    Идентификатор кодека                     : 50
    Продолжительность                        : 1 ч. 34 м.
    Вид битрейта                             : Постоянный
    Битрейт                                  : 224 Кбит/сек
    Каналы                                   : 2 канала
    Частота                                  : 44,1 КГц
    Метод сжатия                             : С потерями
    Размер потока                            : 152 Мбайт (11%)
    Выравнивание                             : Разделение по промежуткам
    Продолжительность промежутка             : 40  мс. (1,00 видеокадр)
    Время предзагрузки промежутка            : 500  мс.
    Язык                                     : Russian

    Скріншоти

    Скачать .torrent

    Скачать торрент-файл бесплатно и на максимальной скорости!

    Как скачивать? · Что такое торрент? · Рейтинг и ограничения

    !ВНИМАНИЕ!
    Сайт не распространяет и не хранит электронные версии произведений, а занимается лишь лишь предоставлением доступа к создаваемому пользователями каталогу ссылок на торрент-файлы, которые содержат только списки хеш-сумм, убедительная просьба с жалобами обращаться напрямую к пользователю. Файлы для обмена на трекере предоставлены пользователями сайта, и администрация не несёт ответственности за их содержание. Просьба не заливать файлы, защищенные авторскими правами, а также файлы нелегального содержания!


    _________________
    [Профиль] [ЛС]
    Показать сообщения:    
    Ответить на тему

    Текущее время: Сегодня, в 20:22

    Часовой пояс: GMT + 2



    Вы не можете начинать темы
    Вы не можете отвечать на сообщения
    Вы не можете редактировать свои сообщения
    Вы не можете удалять свои сообщения
    Вы не можете голосовать в опросах
    Вы не можете прикреплять файлы к сообщениям
    Вы не можете скачивать файлы