BitTorrentTracker PerecTracker.org
BitTorrentTracker PerecTracker.org
    
Регистрация  ·  Вход
 
 · 
Забыли пароль?

  • [iPad] Воздух / Air (Кристиан Кантамесса / Christian Cantamessa ) [2014, США, Фантастика, драма, триллер, BDRip, SD (576p)] MVO + Original + sub (rus, eng, ukr)

    Ответить на тему
     
    Автор Сообщение

    rechyn

    Создавать темы 14-Окт-2015 01:27

           

    [Цитировать]

    Воздух / Air
    «Two men. One task. Save humankind»
    4.936 / 10 5.10 / 10
    -Год выпуска: 2014
    Страна: США
    Жанр: Фантастика, драма, триллер
    Продолжительность: 01:34:28
    Перевод: Многоголосый закадровый (R5)
    Оригинальная аудиодорожка: Есть
    Cубтитры: Русские, Английские, Украинские
    Режиссёр: Кристиан Кантамесса
    Сценарий: Кристиан Кантамесса, Chris Pasetto
    Продюсер: Дэвид Элперт, Крис Фергюсон, Брайан Кэвэна-Джонс
    Оператор: Норм Ли
    Художник: Брайан Кэйн, Педро Ромеро, Мила Франович
    Монтаж: Грег ЭнДжи
    В ролях: Норман Ридус, Джимон Хонсу, Сандрин Холт, Питер Бенсон, Стив Бёрджесс, Майкл Хоган, Паула Линдберг, Дэвид Найкл
    Мировая премьера: 14 августа 2015
    Описание: В центре сюжета два человека, герои Ридуса и Хонсу. Атмосфера стала совершенно непригодной для жизни, настал апокалипсис. Но у человечества еще есть шанс на спасение. Группа людей, ученых, выжила, благодаря криогенной заморозке. Только они способны спасти жизнь на Земле, и главным героям предстоит охранять их криогенный сон. Но, как оказалось, это задача не из самых простых. Впереди ребят ожидают неимоверные испытания.-Качество исходника: Blu-Ray (BlueBird)
    Качество: BDRip
    Тип: SD (576p)
    Контейнер: M4V
    Видео: H.264, 1024x432, 2.40:1, 2 200 Kbps, 23.976 fps
    Аудио 1: Русский/Многоголосый закадровый (R5), AAC / 2.0 / 157 Kbps / 48.0 KHz
    Аудио 2: Английский/Оригинальная дорожка , AAC / 2.0 / 157 Kbps / 48.0 KHz
    Аудио 3: Украинский/Многоголосый закадровый (R5), AAC / 2.0 / 157 Kbps / 48.0 KHz
    Субтитры 1: Русские полные
    Субтитры 2: Английские полные
    Субтитры 3: Украинские полные
    -

    iTunes Meta Tags

    Sort Name: Air
    XID: Apple:vendor_id:2014-645292
    contentID: 1014874786
    Copyright: © 2015 Automatik Entertainment, LLC. All Rights Reserved.
    Screenwriters: Кристиан Кантамесса, Chris Pasetto
    Producers: Дэвид Элперт, Крис Фергюсон, Брайан Кэвэна-Джонс
    Director: Кристиан Кантамесса
    Cast: Норман Ридус, Джимон Хонсу, Сандрин Холт, Питер Бенсон, Стив Бёрджесс, Майкл Хоган, Паула Линдберг, Дэвид Найкл
    Studio: Automatik Entertainment
    Rating Annotation: Rated PG-13 for some violence, language and sexual references
    Rating: 4
    Long Description: В центре сюжета два человека, герои Ридуса и Хонсу. Атмосфера стала совершенно непригодной для жизни, настал апокалипсис. Но у человечества еще есть шанс на спасение. Группа людей, ученых, выжила, благодаря криогенной заморозке. Только они способны спасти жизнь на Земле, и главным героям предстоит охранять их криогенный сон. Но, как оказалось, это задача не из самых простых. Впереди ребят ожидают неимоверные испытания.
    Description: В центре сюжета два человека, герои Ридуса и Хонсу. Атмосфера стала совершенно непригодной для жизни, настал апокалипсис. Но у человечества еще есть шанс на спасение...
    Release Date: 2015-08-14T08:00:00Z
    Genre: Sci-Fi & Fantasy
    Artist: Christian Cantamessa
    Name: Air

    MediaInfo

    General
    Complete name : /Users/imac/HandBrake/Air.(SD).(pk).m4v
    Format : MPEG-4
    Codec ID : M4V
    File size : 1.77 GiB
    Duration : 1h 34mn
    Overall bit rate mode : Variable
    Overall bit rate : 2 681 Kbps
    Movie name : Air
    Performer : Christian Cantamessa
    Director : Кристиан Кантамесса
    Actor : Норман Ридус / Джимон Хонсу / Сандрин Холт / Питер Бенсон / Стив Бёрджесс / Майкл Хоган / Паула Линдберг / Дэвид Найкл
    Screenplay by : Кристиан Кантамесса / Chris Pasetto
    Producer : Дэвид Элперт / Крис Фергюсон / Брайан Кэвэна-Джонс
    Production studio : Automatik Entertainment
    Genre : Sci-Fi & Fantasy
    ContentType : Short Film
    Description : В центре сюжета два человека, герои Ридуса и Хонсу. Атмосфера стала совершенно непригодной для жизни, настал апокалипсис. Но у человечества еще есть шанс на спасение...
    Recorded date : UTC 2015-08-14 08:00:00
    Encoded date : UTC 2015-10-13 21:04:50
    Tagged date : UTC 2015-10-13 21:06:26
    Copyright : © 2015 Automatik Entertainment, LLC. All Rights Reserved.
    Cover : Yes
    Rating : None
    Title/Sort : Air
    LongDescription : В центре сюжета два человека, герои Ридуса и Хонсу. Атмосфера стала совершенно непригодной для жизни, настал апокалипсис. Но у человечества еще есть шанс на спасение. Группа людей, ученых, выжила, благодаря криогенной заморозке. Только они способны спасти жизнь на Земле, и главным героям предстоит охранять их криогенный сон. Но, как оказалось, это задача не из самых простых. Впереди ребят ожидают неимоверные испытания.
    AppleStoreCatalogID : 1014874786
    Vendor : Apple:vendor_id:2014-645292
    ContentRating : mpaa|PG-13|300|Rated PG-13 for some violence, language and sexual references
    Video #1
    ID : 1
    Format : AVC
    Format/Info : Advanced Video Codec
    Format profile : High@L3.1
    Format settings, CABAC : Yes
    Format settings, ReFrames : 9 frames
    Codec ID : avc1
    Codec ID/Info : Advanced Video Coding
    Duration : 1h 34mn
    Source duration : 1h 34mn
    Bit rate : 2 200 Kbps
    Width : 1 024 pixels
    Height : 432 pixels
    Display aspect ratio : 2.40:1
    Frame rate mode : Variable
    Frame rate : 23.976 fps
    Minimum frame rate : 23.974 fps
    Maximum frame rate : 23.981 fps
    Color space : YUV
    Chroma subsampling : 4:2:0
    Bit depth : 8 bits
    Scan type : Progressive
    Bits/(Pixel*Frame) : 0.207
    Stream size : 1.45 GiB (82%)
    Source stream size : 1.45 GiB (82%)
    Title : Main Program
    Writing library : x264 core 142 r2479 dd79a61
    Encoding settings : cabac=1 / ref=9 / deblock=1:0:0 / analyse=0x3:0x113 / me=umh / subme=9 / psy=1 / psy_rd=1.00:0.00 / mixed_ref=1 / me_range=32 / chroma_me=1 / trellis=1 / 8x8dct=1 / cqm=0 / deadzone=21,11 / fast_pskip=1 / chroma_qp_offset=-2 / threads=36 / lookahead_threads=3 / sliced_threads=0 / nr=0 / decimate=1 / interlaced=0 / bluray_compat=0 / constrained_intra=0 / bframes=6 / b_pyramid=2 / b_adapt=2 / b_bias=0 / direct=1 / weightb=1 / open_gop=0 / weightp=2 / keyint=240 / keyint_min=24 / scenecut=40 / intra_refresh=0 / rc_lookahead=40 / rc=2pass / mbtree=1 / bitrate=2200 / ratetol=1.0 / qcomp=0.60 / qpmin=0 / qpmax=69 / qpstep=4 / cplxblur=20.0 / qblur=0.5 / ip_ratio=1.40 / aq=1:1.00
    Language : English
    Encoded date : UTC 2015-10-13 21:04:50
    Tagged date : UTC 2015-10-13 21:04:55
    Color range : Limited
    Color primaries : BT.709
    Transfer characteristics : BT.709
    Matrix coefficients : BT.709
    Video #2
    ID : 9
    Format : JPEG
    Codec ID : jpeg
    Duration : 1h 34mn
    Bit rate mode : Variable
    Bit rate : 589 bps
    Width : 640 pixels
    Height : 270 pixels
    Display aspect ratio : 2.40:1
    Frame rate mode : Variable
    Frame rate : 0.003 fps
    Minimum frame rate : 0.002 fps
    Maximum frame rate : 0.004 fps
    Color space : YUV
    Chroma subsampling : 4:2:0
    Bit depth : 8 bits
    Compression mode : Lossy
    Bits/(Pixel*Frame) : 1.136
    Stream size : 384 KiB (0%)
    Title : Chapter Images
    Language : English
    Encoded date : UTC 2015-10-13 21:05:25
    Tagged date : UTC 2015-10-13 21:05:25
    Audio #1
    ID : 2
    Format : AAC
    Format/Info : Advanced Audio Codec
    Format profile : LC
    Codec ID : 40
    Duration : 1h 34mn
    Bit rate mode : Variable
    Bit rate : 157 Kbps
    Maximum bit rate : 235 Kbps
    Channel(s) : 2 channels
    Channel positions : Front: L R
    Sampling rate : 48.0 KHz
    Compression mode : Lossy
    Stream size : 106 MiB (6%)
    Title : Russian Stereo
    Language : Russian
    Encoded date : UTC 2015-10-13 21:04:51
    Tagged date : UTC 2015-10-13 21:05:21
    Audio #2
    ID : 3
    Format : AAC
    Format/Info : Advanced Audio Codec
    Format profile : LC
    Codec ID : 40
    Duration : 1h 34mn
    Bit rate mode : Variable
    Bit rate : 157 Kbps
    Maximum bit rate : 238 Kbps
    Channel(s) : 2 channels
    Channel positions : Front: L R
    Sampling rate : 48.0 KHz
    Compression mode : Lossy
    Stream size : 106 MiB (6%)
    Title : English Stereo
    Language : English
    Encoded date : UTC 2015-10-13 21:04:51
    Tagged date : UTC 2015-10-13 21:05:21
    Audio #3
    ID : 4
    Format : AAC
    Format/Info : Advanced Audio Codec
    Format profile : LC
    Codec ID : 40
    Duration : 1h 34mn
    Bit rate mode : Variable
    Bit rate : 157 Kbps
    Maximum bit rate : 235 Kbps
    Channel(s) : 2 channels
    Channel positions : Front: L R
    Sampling rate : 48.0 KHz
    Compression mode : Lossy
    Stream size : 106 MiB (6%)
    Title : Ukrainian Stereo
    Language : Ukrainian
    Encoded date : UTC 2015-10-13 21:04:51
    Tagged date : UTC 2015-10-13 21:05:21
    Text #1
    ID : 5
    Format : Timed Text
    Muxing mode : sbtl
    Codec ID : tx3g
    Duration : 1h 29mn
    Bit rate mode : Variable
    Bit rate : 65 bps
    Stream size : 42.3 KiB (0%)
    Title : Russian full
    Language : Russian
    Encoded date : UTC 2015-10-13 21:04:51
    Tagged date : UTC 2015-10-13 21:05:19
    Text #2
    ID : 6
    Format : Timed Text
    Muxing mode : sbtl
    Codec ID : tx3g
    Duration : 1h 25mn
    Bit rate mode : Variable
    Bit rate : 43 bps
    Stream size : 27.1 KiB (0%)
    Title : English full
    Language : English
    Encoded date : UTC 2015-10-13 21:04:51
    Tagged date : UTC 2015-10-13 21:05:18
    Text #3
    ID : 7
    Format : Timed Text
    Muxing mode : sbtl
    Codec ID : tx3g
    Duration : 1h 28mn
    Bit rate mode : Variable
    Bit rate : 62 bps
    Stream size : 40.3 KiB (0%)
    Title : Ukrainian full
    Language : Ukrainian
    Encoded date : UTC 2015-10-13 21:04:51
    Tagged date : UTC 2015-10-13 21:05:19
    Menu #1
    00:00:00.000 : Chapter 1
    00:04:28.727 : Chapter 2
    00:09:10.467 : Chapter 3
    00:16:31.324 : Chapter 4
    00:23:10.639 : Chapter 5
    00:28:57.861 : Chapter 6
    00:34:35.991 : Chapter 7
    00:40:38.728 : Chapter 8
    00:45:14.795 : Chapter 9
    00:49:08.779 : Chapter 10
    00:54:54.625 : Chapter 11
    00:59:38.575 : Chapter 12
    01:04:56.351 : Chapter 13
    01:13:30.072 : Chapter 14
    01:19:13.540 : Chapter 15
    01:23:40.224 : Chapter 16
    Menu #2
    ID : 8
    Codec ID : text
    Duration : 1h 34mn
    Language : English
    Encoded date : UTC 2015-10-13 21:05:21
    Tagged date : UTC 2015-10-13 21:05:21
    00:00:00.000 : Chapter 1
    00:04:28.727 : Chapter 2
    00:09:10.467 : Chapter 3
    00:16:31.324 : Chapter 4
    00:23:10.639 : Chapter 5
    00:28:57.861 : Chapter 6
    00:34:35.991 : Chapter 7
    00:40:38.728 : Chapter 8
    00:45:14.795 : Chapter 9
    00:49:08.779 : Chapter 10
    00:54:54.625 : Chapter 11
    00:59:38.575 : Chapter 12
    01:04:56.351 : Chapter 13
    01:13:30.072 : Chapter 14
    01:19:13.540 : Chapter 15
    01:23:40.224 : Chapter 16
    Bit rate mode : VBR

    x264 лог

    x264 [info]: frame I:779   Avg QP:10.38  size: 59552
    x264 [info]: frame P:28133 Avg QP:12.94  size: 23207
    x264 [info]: frame B:106999 Avg QP:15.05  size:  8027
    x264 [info]: consecutive B-frames:  1.5%  2.1%  5.6% 15.3% 20.7% 44.4% 10.4%
    x264 [info]: mb I  I16..4: 13.0% 71.7% 15.3%
    x264 [info]: mb P  I16..4:  2.0% 11.0%  1.8%  P16..4: 32.2% 27.8% 17.0%  0.0%  0.0%    skip: 8.1%
    x264 [info]: mb B  I16..4:  0.2%  1.5%  0.1%  B16..8: 36.5% 14.5%  4.1%  direct: 4.6%  skip:38.4%  L0:45.4% L1:45.7% BI: 9.0%
    x264 [info]: 8x8 transform intra:76.3% inter:64.1%
    x264 [info]: coded y,uvDC,uvAC intra: 87.7% 52.7% 31.3% inter: 29.8% 13.8% 2.1%
    x264 [info]: i16 v,h,dc,p: 35% 18%  7% 40%
    x264 [info]: i8 v,h,dc,ddl,ddr,vr,hd,vl,hu: 10%  9%  9% 10% 13% 13% 13% 11% 12%
    x264 [info]: i4 v,h,dc,ddl,ddr,vr,hd,vl,hu:  8%  9%  4% 10% 16% 15% 14% 12% 13%
    x264 [info]: i8c dc,h,v,p: 47% 29% 16%  7%
    x264 [info]: Weighted P-Frames: Y:5.1% UV:2.2%
    x264 [info]: ref P L0: 45.0%  5.9% 19.9%  7.7%  6.8%  4.7%  4.5%  2.5%  2.7%  0.4%  0.0%
    x264 [info]: ref B L0: 71.5% 13.8%  5.9%  3.2%  2.2%  1.9%  1.1%  0.4%
    x264 [info]: ref B L1: 92.4%  7.6%
    x264 [info]: kb/s:2198.93

    Скриншоты

    -

    Релиз подготовлен для просмотра на Apple TV, iPad, iPhone, iPod Touch.
    Для просмотра данного релиза на компьютере с ОС Windows рекомендуется использовать VLC media player
    Скачать .torrent

    Скачать торрент-файл бесплатно и на максимальной скорости!

    Как скачивать? · Что такое торрент? · Рейтинг и ограничения

    !ВНИМАНИЕ!
    Сайт не распространяет и не хранит электронные версии произведений, а занимается лишь лишь предоставлением доступа к создаваемому пользователями каталогу ссылок на торрент-файлы, которые содержат только списки хеш-сумм, убедительная просьба с жалобами обращаться напрямую к пользователю. Файлы для обмена на трекере предоставлены пользователями сайта, и администрация не несёт ответственности за их содержание. Просьба не заливать файлы, защищенные авторскими правами, а также файлы нелегального содержания!


    _________________
    [Профиль] [ЛС]
    Показать сообщения:    
    Ответить на тему

    Текущее время: Сегодня, в 00:21

    Часовой пояс: GMT + 2



    Вы не можете начинать темы
    Вы не можете отвечать на сообщения
    Вы не можете редактировать свои сообщения
    Вы не можете удалять свои сообщения
    Вы не можете голосовать в опросах
    Вы не можете прикреплять файлы к сообщениям
    Вы не можете скачивать файлы