BitTorrentTracker PerecTracker.org
BitTorrentTracker PerecTracker.org
    
Регистрация  ·  Вход
 
 · 
Забыли пароль?

  • На зов скорби / Les Revenants / Сезон 2 ( 1-8 серии из 8) (Фабрис Гобер, Фридерик Мерму, Фридерик Гупил) [2015, фэнтези, триллер, драма, HDTVRip] MVO (AlexFilm) + Original

    Ответить на тему
     
    Автор Сообщение

    older

    Создавать темы 13-Окт-2015 11:31

           

    [Цитировать]

    На зов скорби / Les RevenantsГод выпуска: 2015
    Страна: Франция
    Жанр: фэнтези, триллер, драма
    Продолжительность: 00:51:00
    Озвучание: Профессиональное (многоголосое закадровое) - AlexFilm
    Субтитры: нет
    Режиссёры: Фабрис Гобер, Фридерик Мерму, Фридерик Гупил-В ролях: Фредерик Пьеро, Самир Гесми, Гийом Гуи, Жан-Франсуа Сивадье, Аликс Пуасон,Дженна Тиам, Анн Косиньи,Клотильда Эсме,Селин Саллетт, Грегори Гадебуа,Пьер Перрье, Яра Пиларц,Сванн Намботин, Ана Жирардо...-Описание: В небольшой альпийской деревушке, растерянные люди пытаются вернуться домой. Они ещё не знают, что мертвы уже несколько лет. Вернувшиеся полны решимости вернуть себе место в мире живых. Но, похоже, воскресли не только мирные жители. Их возврат совпадает с серией жестоких убийств, похожих на дело рук серийного убийцы из прошлого. И на этом нарушения в естественном ходе вещей не заканчиваются...- -Кодек: XviD
    Формат: AVI
    Качество: HDTVRip
    Видео: 720x400 (16:9), 1394 kbps, 23.976 fps, 0.202 bit/pixel
    Аудио 1: 48 kHz, MPEG Layer 3, 2 ch, 128.00 kbps - Ru
    Аудио 2: 48 kHz, MPEG Layer 3, 2 ch, 128.00 kbps - Fre-
    Релиз группы:

    Релиз

    Перевод: Vipere
    Монтаж и сведение звука: Михаил Шорыгин
    Роли озвучивали:
  • Анастасия Флигина
  • Татьяна Манетина
  • Сергей Пономарёв
  • Александр Дасевич
  • Михаил Суслов
  • MediaInfo

    Общее
    Полное имя                               : \Les Revenants - Saison 2 (AlexFilm) HDTVRip\Les.Revenants.s02e01.HDTVRip.Rus.Fre.AlexFilm.avi
    Формат                                   : AVI
    Формат/Информация                        : Audio Video Interleave
    Размер файла                             : 612 Мбайт
    Продолжительность                        : 51 м.
    Общий поток                              : 1664 Кбит/сек
    Название фильма                          : Les Revenants 2x01 @ AlexFilm
    Программа кодирования                    : VirtualDubMod 1.5.10.2 (build 2540/release)
    Библиотека кодирования                   : VirtualDubMod build 2540/release
    Видео
    Идентификатор                            : 0
    Формат                                   : MPEG-4 Visual
    Профиль формата                          : Advanced Simple@L5
    Параметр BVOP формата                    : Нет
    Параметр QPel формата                    : Нет
    Параметр GMC формата                     : Без точки перехода
    Параметр матрицы формата                 : Default (H.263)
    Идентификатор кодека                     : XVID
    Идентификатор кодека/Подсказка           : XviD
    Продолжительность                        : 51 м.
    Битрейт                                  : 1394 Кбит/сек
    Ширина                                   : 720 пикселей
    Высота                                   : 400 пикселей
    Соотношение сторон                       : 16:9
    Частота кадров                           : 23,976 кадра/сек
    Цветовое пространство                    : YUV
    Субдискретизация насыщенности            : 4:2:0
    Битовая глубина                          : 8 бит
    Тип развёртки                            : Прогрессивная
    Метод сжатия                             : С потерями
    Бит/(Пиксели*Кадры)                      : 0.202
    Размер потока                            : 513 Мбайт (84%)
    Библиотека кодирования                   : XviD 73
    Аудио #1
    Идентификатор                            : 1
    Формат                                   : MPEG Audio
    Версия формата                           : Version 1
    Профиль формата                          : Layer 3
    Режим                                    : Joint stereo
    Расширение режима                        : MS Stereo
    Идентификатор кодека                     : 55
    Идентификатор кодека/Подсказка           : MP3
    Продолжительность                        : 51 м.
    Вид битрейта                             : Постоянный
    Битрейт                                  : 128 Кбит/сек
    Каналы                                   : 2 канала
    Частота                                  : 48,0 КГц
    Метод сжатия                             : С потерями
    Размер потока                            : 47,1 Мбайт (8%)
    Выравнивание                             : Соединение по промежуткам
    Продолжительность промежутка             : 42  мс. (1,00 видеокадр)
    Время предзагрузки промежутка            : 504  мс.
    Аудио #2
    Идентификатор                            : 2
    Формат                                   : MPEG Audio
    Версия формата                           : Version 1
    Профиль формата                          : Layer 3
    Режим                                    : Joint stereo
    Расширение режима                        : MS Stereo
    Идентификатор кодека                     : 55
    Идентификатор кодека/Подсказка           : MP3
    Продолжительность                        : 51 м.
    Вид битрейта                             : Постоянный
    Битрейт                                  : 128 Кбит/сек
    Каналы                                   : 2 канала
    Частота                                  : 48,0 КГц
    Метод сжатия                             : С потерями
    Размер потока                            : 47,1 Мбайт (8%)
    Выравнивание                             : Соединение по промежуткам
    Продолжительность промежутка             : 42  мс. (1,00 видеокадр)
    Время предзагрузки промежутка            : 504  мс.

    Скриншоты

    Обновление раздачи

    При каждом добавлении создаётся новый торрент. Чтобы начать докачку новой серии, пользователям необходимо сделать следующее:
    1. Остановить скачивание,
    2. Удалить старый торрент у себя из клиента (старые серии удалять не надо),
    3. Скачать новый торрент и запустить его у себя в клиенте вместо старого, при этом указать клиенту путь в старую папку куда и должно происходить скачивание новых серий.
    Ваш клиент при этом должен произвести хеширование (проверку) старой папки (если не производит сам - помогите ему сделать это), и будет докачивать только те серии которых у вас ещё нет. Старые серии при этом не удаляются, а продолжают раздаваться!
    Если вы уже удалили старые серии, то предотвратить повторную закачку старых серий можно, отжав галочку в соответствующих местах при запуске нового торрента.
    Скачать .torrent

    Скачать торрент-файл бесплатно и на максимальной скорости!

    Как скачивать? · Что такое торрент? · Рейтинг и ограничения

    !ВНИМАНИЕ!
    Сайт не распространяет и не хранит электронные версии произведений, а занимается лишь лишь предоставлением доступа к создаваемому пользователями каталогу ссылок на торрент-файлы, которые содержат только списки хеш-сумм, убедительная просьба с жалобами обращаться напрямую к пользователю. Файлы для обмена на трекере предоставлены пользователями сайта, и администрация не несёт ответственности за их содержание. Просьба не заливать файлы, защищенные авторскими правами, а также файлы нелегального содержания!


    _________________


    Последний раз редактировалось: older (2015-11-07 08:38), всего редактировалось 2 раз(а)
    [Профиль] [ЛС]

    older ®

    Создавать темы 16-Окт-2015 05:14 (спустя 2 дня 17 часов)

           

    [Цитировать]

    16.10.15. Раздача обновлена!
    Добавлена 2 серия.
    Перекачайте торрент файл!

    _________________
    [Профиль] [ЛС]

    older ®

    Создавать темы 03-Ноя-2015 06:32 (спустя 18 дней)

           

    [Цитировать]

    03.11.15. Раздача обновлена!
    Добавлены 3-7 серии.
    Перекачайте торрент файл!

    _________________
    [Профиль] [ЛС]

    older ®

    Создавать темы 07-Ноя-2015 08:39 (спустя 4 дня)

           

    [Цитировать]

    07.11.15. Раздача обновлена!
    Добавлена 8, последняя серия. Сезон представлен полностью.
    Перекачайте торрент файл!

    _________________
    [Профиль] [ЛС]
    Показать сообщения:    
    Ответить на тему

    Текущее время: Сегодня, в 09:10

    Часовой пояс: GMT + 2



    Вы не можете начинать темы
    Вы не можете отвечать на сообщения
    Вы не можете редактировать свои сообщения
    Вы не можете удалять свои сообщения
    Вы не можете голосовать в опросах
    Вы не можете прикреплять файлы к сообщениям
    Вы не можете скачивать файлы