BitTorrentTracker PerecTracker.org
BitTorrentTracker PerecTracker.org
    
Регистрация  ·  Вход
 
 · 
Забыли пароль?

  • Ты, я и апокалипсис / You, Me and the Apocalypse / Сезон 1 (1-10 серии из 10) (Сауль Метцштайн, Тим Киркби, Майкл Энглер) [2015, комедия, HDTVRip] MVO (AlexFilm) + Original

    Ответить на тему
     
    Автор Сообщение

    older

    Создавать темы 13-Окт-2015 10:40

           

    [Цитировать]

    Ты, я и апокалипсис / You, Me and the Apocalypse
    Год выпуска: 2015
    Страна: США , Великобритания
    Жанр: комедия
    Продолжительность: 00:43:00
    Озвучание: Профессиональное (многоголосое закадровое) - AlexFilm
    Вид субтитров: нет
    Режиссеры: Сауль Метцштайн, Тим Киркби, Майкл Энглер
    В ролях: Кайл Соллер, Эдвард Джадж, Мэтью Бэйнтон, Дженна Фишер, Джоэль Фрай, Роб Лоу, Меган Маллалли, Макс Браун, Найджел Барбер, Пол Блэкуэлл-Описание: Когда группа обычных людей узнаёт о комете, диаметром в тринадцать километров, которая летит навстречу Земле, они спускаются под город Слау, чтобы наблюдать за концом света по телевизору. Но кто эти люди, и как пересеклись их пути?- -Кодек: XviD
    Формат: AVI
    Качество: HDTVRip
    Видео: 720x400 (16:9), 1395 kbps, 25,000 fps, 0.194 bit/pixel
    Аудио 1: 48 kHz, MPEG Layer 3, 2 ch, 128.00 kbps - Ru
    Аудио 2: 48 kHz, MPEG Layer 3, 2 ch, 128.00 kbps - En-Релиз группы:

    Релиз

    Перевод: Константин Кривоногов
    Монтаж и сведение звука: Михаил Шорыгин
    Роли озвучивали:
  • Татьяна Манетина
  • Евгения Тихонова
  • Пётр Гланц Иващенко
  • Александр Дасевич
  • Михаил Суслов
  • Михаил Шорыгин
  • Михаил Алексеев
  • MediaInfo

    Общее
    Полное имя                               : \You, Me & The Apocalypse  - Season 1 (AlexFilm) HDTVRip\You.Me.and.the.Apocalypse.s01e01.HDTVRip.Rus.Eng.AlexFilm.avi
    Формат                                   : AVI
    Формат/Информация                        : Audio Video Interleave
    Размер файла                             : 522 Мбайт
    Продолжительность                        : 43 м.
    Общий поток                              : 1666 Кбит/сек
    Название фильма                          : You, Me & The Apocalypse. 1x01 @ AlexFilm
    Программа кодирования                    : VirtualDubMod 1.5.10.2 (build 2540/release)
    Библиотека кодирования                   : VirtualDubMod build 2540/release
    Видео
    Идентификатор                            : 0
    Формат                                   : MPEG-4 Visual
    Профиль формата                          : Advanced Simple@L5
    Параметр BVOP формата                    : Нет
    Параметр QPel формата                    : Нет
    Параметр GMC формата                     : Без точки перехода
    Параметр матрицы формата                 : Default (H.263)
    Идентификатор кодека                     : XVID
    Идентификатор кодека/Подсказка           : XviD
    Продолжительность                        : 43 м.
    Битрейт                                  : 1395 Кбит/сек
    Ширина                                   : 720 пикселей
    Высота                                   : 400 пикселей
    Соотношение сторон                       : 16:9
    Частота кадров                           : 25,000 кадров/сек
    Цветовое пространство                    : YUV
    Субдискретизация насыщенности            : 4:2:0
    Битовая глубина                          : 8 бит
    Тип развёртки                            : Прогрессивная
    Метод сжатия                             : С потерями
    Бит/(Пиксели*Кадры)                      : 0.194
    Размер потока                            : 437 Мбайт (84%)
    Библиотека кодирования                   : XviD 73
    Аудио #1
    Идентификатор                            : 1
    Формат                                   : MPEG Audio
    Версия формата                           : Version 1
    Профиль формата                          : Layer 3
    Режим                                    : Joint stereo
    Расширение режима                        : MS Stereo
    Идентификатор кодека                     : 55
    Идентификатор кодека/Подсказка           : MP3
    Продолжительность                        : 43 м.
    Вид битрейта                             : Постоянный
    Битрейт                                  : 128 Кбит/сек
    Каналы                                   : 2 канала
    Частота                                  : 48,0 КГц
    Метод сжатия                             : С потерями
    Размер потока                            : 40,1 Мбайт (8%)
    Выравнивание                             : Соединение по промежуткам
    Продолжительность промежутка             : 40  мс. (1,00 видеокадр)
    Время предзагрузки промежутка            : 504  мс.
    Аудио #2
    Идентификатор                            : 2
    Формат                                   : MPEG Audio
    Версия формата                           : Version 1
    Профиль формата                          : Layer 3
    Режим                                    : Joint stereo
    Идентификатор кодека                     : 55
    Идентификатор кодека/Подсказка           : MP3
    Продолжительность                        : 43 м.
    Вид битрейта                             : Постоянный
    Битрейт                                  : 128 Кбит/сек
    Каналы                                   : 2 канала
    Частота                                  : 48,0 КГц
    Метод сжатия                             : С потерями
    Размер потока                            : 40,1 Мбайт (8%)
    Выравнивание                             : Соединение по промежуткам
    Продолжительность промежутка             : 40  мс. (1,00 видеокадр)
    Время предзагрузки промежутка            : 504  мс.

    Скриншоты

    Обновление раздачи

    При каждом добавлении создаётся новый торрент. Чтобы начать докачку новой серии, пользователям необходимо сделать следующее:
    1. Остановить скачивание,
    2. Удалить старый торрент у себя из клиента (старые серии удалять не надо),
    3. Скачать новый торрент и запустить его у себя в клиенте вместо старого, при этом указать клиенту путь в старую папку куда и должно происходить скачивание новых серий.
    Ваш клиент при этом должен произвести хеширование (проверку) старой папки (если не производит сам - помогите ему сделать это), и будет докачивать только те серии которых у вас ещё нет. Старые серии при этом не удаляются, а продолжают раздаваться!
    Если вы уже удалили старые серии, то предотвратить повторную закачку старых серий можно, отжав галочку в соответствующих местах при запуске нового торрента.
    Скачать .torrent

    Скачать торрент-файл бесплатно и на максимальной скорости!

    Как скачивать? · Что такое торрент? · Рейтинг и ограничения

    !ВНИМАНИЕ!
    Сайт не распространяет и не хранит электронные версии произведений, а занимается лишь лишь предоставлением доступа к создаваемому пользователями каталогу ссылок на торрент-файлы, которые содержат только списки хеш-сумм, убедительная просьба с жалобами обращаться напрямую к пользователю. Файлы для обмена на трекере предоставлены пользователями сайта, и администрация не несёт ответственности за их содержание. Просьба не заливать файлы, защищенные авторскими правами, а также файлы нелегального содержания!


    _________________


    Последний раз редактировалось: older (2016-02-24 06:42), всего редактировалось 4 раз(а)
    [Профиль] [ЛС]

    older ®

    Создавать темы 03-Ноя-2015 06:35 (спустя 20 дней)

           

    [Цитировать]

    03.11.15. Раздача обновлена!
    Добавлены 3-4 серии.
    Перекачайте торрент файл!

    _________________
    [Профиль] [ЛС]

    older ®

    Создавать темы 20-Ноя-2015 07:15 (спустя 17 дней)

           

    [Цитировать]

    20.11.15. Раздача обновлена!
    Добавлена 5 серия.
    Перекачайте торрент файл!

    _________________
    [Профиль] [ЛС]

    older ®

    Создавать темы 11-Дек-2015 14:44 (спустя 21 день)

           

    [Цитировать]

    11.12.15. Раздача обновлена!
    Добавлены 6-7 серии.
    Перекачайте торрент файл!

    _________________
    [Профиль] [ЛС]

    older ®

    Создавать темы 24-Фев-2016 06:42 (спустя 2 месяца 12 дней)

           

    [Цитировать]

    24.02.16. Раздача обновлена!
    Добавлены 8-10 серии.
    Перекачайте торрент файл!

    _________________
    [Профиль] [ЛС]
    Показать сообщения:    
    Ответить на тему

    Текущее время: Сегодня, в 04:38

    Часовой пояс: GMT + 2



    Вы не можете начинать темы
    Вы не можете отвечать на сообщения
    Вы не можете редактировать свои сообщения
    Вы не можете удалять свои сообщения
    Вы не можете голосовать в опросах
    Вы не можете прикреплять файлы к сообщениям
    Вы не можете скачивать файлы