BitTorrentTracker PerecTracker.org
BitTorrentTracker PerecTracker.org
    
Регистрация  ·  Вход
 
 · 
Забыли пароль?

  • От заката до рассвета / From Dusk Till Dawn / Сезон 2 (1-10 серии из 10) (Роберт Родригес, Джо Менендес, Дуайт Х. Литтл) [2015, боевик, ужасы, криминал, фэнтези, WEB-DLRip] MVO (NewStudio) + Original

    Ответить на тему
     
    Автор Сообщение

    older

    Создавать темы 13-Окт-2015 07:19

           

    [Цитировать]

    От заката до рассвета / From Dusk Till Dawn
    Год выпуска: 2015
    Страна: США
    Жанр: боевик, ужасы, криминал, фэнтези
    Продолжительность: ~ 00:45:00
    Перевод: Профессиональный (многоголосый закадровый) - NewStudio
    Субтитры: нет
    Режиссёры: Роберт Родригес, Джо Менендес, Дуайт Х. Литтл-В ролях: Д.Дж. Котрона, Зейн Холц, Роберт Патрик, Мэдисон Девенпорт, Брэндон Су Ху, Эйса Гонсалес-Описание: Сет Гекко, грабитель банков, и его не совсем психически стабильный братец Ричард находятся в розыске. Разыскивают их не только ФБР, но и техасские законники — шериф МакГроу и рейнджер Гонсалес, которые утраивают усилия после того, как после очередного ограбления, устроенного братьями Гекко, в банке остается несколько трупов. Пытаясь удрать в Мексику, Гекко сталкиваются с бывшим священником Джейкобом Фуллером и его семьей, которых берут в заложники и в их же трейлере отправляются к мексиканской границе. Заехав в небольшой стрип-клуб по дороге, они неудачно знакомятся с целой прорвой жаждущих крови вампиров и пытаются хотя бы дожить до рассвета, не говоря уже о том, чтобы истребить как можно больше чудовищ.- -Кодек: XviD
    Формат: AVI
    Качество: WEB-DLRip
    Видео: 720x400 (16:9), 1384 kbps, 23.976 fps, 0.20 bit/pixel
    Аудио 1: 48 kHz, MPEG Layer 3, 2 ch, 128.00 kbps - Ru
    Аудио 2: 48 kHz, MPEG Layer 3, 2 ch, 128.00 kbps - En-
    Релиз группы:

    MediaInfo

    Общее
    Полное имя                               : \От заката до рассвета (Season II, 2015, WEB-DLRip) [NewStudio]\From.Dusk.Till.Dawn.s02e01.WEBDLRip.NewStudio.avi
    Формат                                   : AVI
    Формат/Информация                        : Audio Video Interleave
    Размер файла                             : 539 Мбайт
    Продолжительность                        : 45 м.
    Общий поток                              : 1653 Кбит/сек
    Программа кодирования                    : VirtualDubMod 1.5.10.2 (build 2540/release)
    Библиотека кодирования                   : VirtualDubMod build 2540/release
    Видео
    Идентификатор                            : 0
    Формат                                   : MPEG-4 Visual
    Профиль формата                          : Advanced Simple@L5
    Параметр BVOP формата                    : 2
    Параметр QPel формата                    : Нет
    Параметр GMC формата                     : Без точки перехода
    Параметр матрицы формата                 : Default (MPEG)
    Идентификатор кодека                     : XVID
    Идентификатор кодека/Подсказка           : XviD
    Продолжительность                        : 45 м.
    Битрейт                                  : 1384 Кбит/сек
    Ширина                                   : 720 пикселей
    Высота                                   : 400 пикселей
    Соотношение сторон                       : 16:9
    Частота кадров                           : 23,976 кадра/сек
    Цветовое пространство                    : YUV
    Субдискретизация насыщенности            : 4:2:0
    Битовая глубина                          : 8 бит
    Тип развёртки                            : Прогрессивная
    Метод сжатия                             : С потерями
    Бит/(Пиксели*Кадры)                      : 0.200
    Размер потока                            : 451 Мбайт (84%)
    Библиотека кодирования                   : XviD 73
    Аудио #1
    Идентификатор                            : 1
    Формат                                   : MPEG Audio
    Версия формата                           : Version 1
    Профиль формата                          : Layer 3
    Режим                                    : Joint stereo
    Расширение режима                        : MS Stereo
    Идентификатор кодека                     : 55
    Идентификатор кодека/Подсказка           : MP3
    Продолжительность                        : 45 м.
    Вид битрейта                             : Постоянный
    Битрейт                                  : 128 Кбит/сек
    Каналы                                   : 2 канала
    Частота                                  : 48,0 КГц
    Метод сжатия                             : С потерями
    Размер потока                            : 41,8 Мбайт (8%)
    Выравнивание                             : Соединение по промежуткам
    Продолжительность промежутка             : 42  мс. (1,00 видеокадр)
    Время предзагрузки промежутка            : 504  мс.
    Аудио #2
    Идентификатор                            : 2
    Формат                                   : MPEG Audio
    Версия формата                           : Version 1
    Профиль формата                          : Layer 3
    Режим                                    : Joint stereo
    Расширение режима                        : MS Stereo
    Идентификатор кодека                     : 55
    Идентификатор кодека/Подсказка           : MP3
    Продолжительность                        : 45 м.
    Вид битрейта                             : Постоянный
    Битрейт                                  : 128 Кбит/сек
    Каналы                                   : 2 канала
    Частота                                  : 48,0 КГц
    Метод сжатия                             : С потерями
    Размер потока                            : 41,8 Мбайт (8%)
    Выравнивание                             : Соединение по промежуткам
    Продолжительность промежутка             : 42  мс. (1,00 видеокадр)
    Время предзагрузки промежутка            : 504  мс.
    Библиотека кодирования                   : LAME3.99.5ЄЄЄЄЄЄЄЄЄЄ

    Скриншоты

    Обновление раздачи

    При каждом добавлении создаётся новый торрент. Чтобы начать докачку новой серии, пользователям необходимо сделать следующее:
    1. Остановить скачивание,
    2. Удалить старый торрент у себя из клиента (старые серии удалять не надо),
    3. Скачать новый торрент и запустить его у себя в клиенте вместо старого, при этом указать клиенту путь в старую папку куда и должно происходить скачивание новых серий.
    Ваш клиент при этом должен произвести хеширование (проверку) старой папки (если не производит сам - помогите ему сделать это), и будет докачивать только те серии которых у вас ещё нет. Старые серии при этом не удаляются, а продолжают раздаваться!
    Если вы уже удалили старые серии, то предотвратить повторную закачку старых серий можно, отжав галочку в соответствующих местах при запуске нового торрента.
    Скачать .torrent

    Скачать торрент-файл бесплатно и на максимальной скорости!

    Как скачивать? · Что такое торрент? · Рейтинг и ограничения

    !ВНИМАНИЕ!
    Сайт не распространяет и не хранит электронные версии произведений, а занимается лишь лишь предоставлением доступа к создаваемому пользователями каталогу ссылок на торрент-файлы, которые содержат только списки хеш-сумм, убедительная просьба с жалобами обращаться напрямую к пользователю. Файлы для обмена на трекере предоставлены пользователями сайта, и администрация не несёт ответственности за их содержание. Просьба не заливать файлы, защищенные авторскими правами, а также файлы нелегального содержания!


    _________________


    Последний раз редактировалось: older (2015-11-03 06:37), всего редактировалось 1 раз
    [Профиль] [ЛС]

    older ®

    Создавать темы 21-Окт-2015 08:47 (спустя 8 дней)

           

    [Цитировать]

    21.10.15. Раздача обновлена!
    Добавлена 8 серия.
    Перекачайте торрент файл!

    _________________
    [Профиль] [ЛС]

    older ®

    Создавать темы 03-Ноя-2015 06:38 (спустя 12 дней)

           

    [Цитировать]

    03.11.15. Раздача обновлена!
    Добавлена 9 серия.
    Перекачайте торрент файл!

    _________________
    [Профиль] [ЛС]
    Показать сообщения:    
    Ответить на тему

    Текущее время: Сегодня, в 12:34

    Часовой пояс: GMT + 2



    Вы не можете начинать темы
    Вы не можете отвечать на сообщения
    Вы не можете редактировать свои сообщения
    Вы не можете удалять свои сообщения
    Вы не можете голосовать в опросах
    Вы не можете прикреплять файлы к сообщениям
    Вы не можете скачивать файлы