BitTorrentTracker PerecTracker.org
BitTorrentTracker PerecTracker.org
    
Регистрация  ·  Вход
 
 · 
Забыли пароль?

  • Агенты Щ.И.Т. / Agents of S.H.I.E.L.D. / Сезон 3 (1-10 серии из 22) (Винс Мисиано, Билл Джирхарт, Бобби Рот) [2015, фантастика, боевик, драма, WEB-DLRip] MVO (LostFilm) + Original

    Ответить на тему
     
    Автор Сообщение

    older

    Создавать темы 13-Окт-2015 06:25

           

    [Цитировать]

    ---Агенты Щ.И.Т. / Agents of S.H.I.E.L.D.-- Год выпуска: 2015
    Страна: США
    Жанр: фантастика, боевик, драма
    Продолжительность: ~ 00:43:00
    Перевод: Профессиональный (многоголосый закадровый) - LostFilm
    Субтитры: нет
    Режиссёр: Винс Мисиано, Билл Джирхарт, Бобби Рот- В ролях: Кларк Грегг, Минг-На, Бретт Далтон, Хлоя Беннет, Йен де Кестекер, Элизабет Хенстридж, Дж. Аугуст Ричардс, Шеннон Лусио, Рон Гласс, Роберт Дж. Стефенсон, Коби Смолдерс, Аарон Бер, Николь Дж. Батлер, Сара Дюмон, Леонор Варела, Иэн Харт, Дэвид Конрад- Описание: Действия сериала разворачиваются после событий фильма «Мстители». Агент Фил Колсон возвращается в правоохранительную организацию под названием Щ.И.Т., собрав небольшую команду профессионалов, он начинает работу над новыми делами, которые порой бывают очень странными.- -Кодек: XviD
    Формат: AVI
    Качество: WEB-DLRip
    Видео: 720x400 (16:9), 1354 kbps, 23.976 fps, 0.196 bit/pixel
    Аудио 1: 48 kHz, MPEG Layer 3, 2 ch, 128.00 kbps - Ru
    Аудио 2: 48 kHz, MPEG Layer 3, 2 ch, 128.00 kbps - En-

    Релиз

    Рип: qqss44
    Синхронизация звука: qqss44

    MediaInfo

    Общее
    Полное имя                               : \Agents of S.H.I.E.L.D (Season 03)\Agents.of.S.H.I.E.L.D.S03E01.XviD.LostFilm.[qqss44].avi
    Формат                                   : AVI
    Формат/Информация                        : Audio Video Interleave
    Размер файла                             : 500 Мбайт
    Продолжительность                        : 43 м.
    Общий поток                              : 1624 Кбит/сек
    Программа кодирования                    : VirtualDubMod 1.5.10.3 | www.virtualdub-fr.org || (build 2550/release)
    Библиотека кодирования                   : VirtualDubMod build 2550/release
    Видео
    Идентификатор                            : 0
    Формат                                   : MPEG-4 Visual
    Профиль формата                          : Advanced Simple@L5
    Параметр BVOP формата                    : 2
    Параметр QPel формата                    : Нет
    Параметр GMC формата                     : Без точки перехода
    Параметр матрицы формата                 : Default (MPEG)
    Идентификатор кодека                     : XVID
    Идентификатор кодека/Подсказка           : XviD
    Продолжительность                        : 43 м.
    Битрейт                                  : 1354 Кбит/сек
    Ширина                                   : 720 пикселей
    Высота                                   : 400 пикселей
    Соотношение сторон                       : 16:9
    Частота кадров                           : 23,976 кадра/сек
    Цветовое пространство                    : YUV
    Субдискретизация насыщенности            : 4:2:0
    Битовая глубина                          : 8 бит
    Тип развёртки                            : Прогрессивная
    Метод сжатия                             : С потерями
    Бит/(Пиксели*Кадры)                      : 0.196
    Размер потока                            : 417 Мбайт (83%)
    Библиотека кодирования                   : XviD 73
    Аудио #1
    Идентификатор                            : 1
    Формат                                   : MPEG Audio
    Версия формата                           : Version 1
    Профиль формата                          : Layer 3
    Режим                                    : Joint stereo
    Расширение режима                        : MS Stereo
    Идентификатор кодека                     : 55
    Идентификатор кодека/Подсказка           : MP3
    Продолжительность                        : 43 м.
    Вид битрейта                             : Постоянный
    Битрейт                                  : 128 Кбит/сек
    Каналы                                   : 2 канала
    Частота                                  : 48,0 КГц
    Метод сжатия                             : С потерями
    Размер потока                            : 39,4 Мбайт (8%)
    Выравнивание                             : Соединение по промежуткам
    Продолжительность промежутка             : 42  мс. (1,00 видеокадр)
    Время предзагрузки промежутка            : 504  мс.
    Аудио #2
    Идентификатор                            : 2
    Формат                                   : MPEG Audio
    Версия формата                           : Version 1
    Профиль формата                          : Layer 3
    Режим                                    : Joint stereo
    Расширение режима                        : MS Stereo
    Идентификатор кодека                     : 55
    Идентификатор кодека/Подсказка           : MP3
    Продолжительность                        : 43 м.
    Вид битрейта                             : Постоянный
    Битрейт                                  : 128 Кбит/сек
    Каналы                                   : 2 канала
    Частота                                  : 48,0 КГц
    Метод сжатия                             : С потерями
    Размер потока                            : 39,4 Мбайт (8%)
    Выравнивание                             : Соединение по промежуткам
    Продолжительность промежутка             : 42  мс. (1,00 видеокадр)
    Время предзагрузки промежутка            : 504  мс.

    Скриншоты

    Обновление раздачи

    При каждом добавлении создаётся новый торрент. Чтобы начать докачку новой серии, пользователям необходимо сделать следующее:
    1. Остановить скачивание,
    2. Удалить старый торрент у себя из клиента (старые серии удалять не надо),
    3. Скачать новый торрент и запустить его у себя в клиенте вместо старого, при этом указать клиенту путь в старую папку куда и должно происходить скачивание новых серий.
    Ваш клиент при этом должен произвести хеширование (проверку) старой папки (если не производит сам - помогите ему сделать это), и будет докачивать только те серии которых у вас ещё нет. Старые серии при этом не удаляются, а продолжают раздаваться!
    Если вы уже удалили старые серии, то предотвратить повторную закачку старых серий можно, отжав галочку в соответствующих местах при запуске нового торрента.
    11.12.15. Раздача обновлена!
    Добавлены 9-10 серии.
    Перекачайте торрент файл!
    Скачать .torrent

    Скачать торрент-файл бесплатно и на максимальной скорости!

    Как скачивать? · Что такое торрент? · Рейтинг и ограничения

    !ВНИМАНИЕ!
    Сайт не распространяет и не хранит электронные версии произведений, а занимается лишь лишь предоставлением доступа к создаваемому пользователями каталогу ссылок на торрент-файлы, которые содержат только списки хеш-сумм, убедительная просьба с жалобами обращаться напрямую к пользователю. Файлы для обмена на трекере предоставлены пользователями сайта, и администрация не несёт ответственности за их содержание. Просьба не заливать файлы, защищенные авторскими правами, а также файлы нелегального содержания!


    _________________


    Последний раз редактировалось: older (2015-12-11 14:54), всего редактировалось 5 раз(а)
    [Профиль] [ЛС]

    older ®

    Создавать темы 16-Окт-2015 05:19 (спустя 2 дня 22 часа)

           

    [Цитировать]

    16.10.15. Раздача обновлена!
    Добавлена 3 серия.
    Перекачайте торрент файл!

    _________________
    [Профиль] [ЛС]

    older ®

    Создавать темы 03-Ноя-2015 06:45 (спустя 18 дней)

           

    [Цитировать]

    03.11.15. Раздача обновлена!
    Добавлены 4-5 серии.
    Перекачайте торрент файл!

    _________________
    [Профиль] [ЛС]

    older ®

    Создавать темы 07-Ноя-2015 08:44 (спустя 4 дня)

           

    [Цитировать]

    07.11.15. Раздача обновлена!
    Добавлена 6 серия.
    Перекачайте торрент файл!

    _________________
    [Профиль] [ЛС]

    older ®

    Создавать темы 14-Ноя-2015 10:47 (спустя 7 дней)

           

    [Цитировать]

    14.11.15. Раздача обновлена!
    Добавлена 7 серия.
    Перекачайте торрент файл!

    _________________
    [Профиль] [ЛС]

    older ®

    Создавать темы 20-Ноя-2015 07:23 (спустя 5 дней)

           

    [Цитировать]

    20.11.15. Раздача обновлена!
    Добавлена 8 серия.
    Перекачайте торрент файл!

    _________________
    [Профиль] [ЛС]

    older ®

    Создавать темы 11-Дек-2015 14:54 (спустя 21 день)

           

    [Цитировать]

    11.12.15. Раздача обновлена!
    Добавлены 9-10 серии.
    Перекачайте торрент файл!

    _________________
    [Профиль] [ЛС]
    Показать сообщения:    
    Ответить на тему

    Текущее время: Сегодня, в 00:27

    Часовой пояс: GMT + 2



    Вы не можете начинать темы
    Вы не можете отвечать на сообщения
    Вы не можете редактировать свои сообщения
    Вы не можете удалять свои сообщения
    Вы не можете голосовать в опросах
    Вы не можете прикреплять файлы к сообщениям
    Вы не можете скачивать файлы