BitTorrentTracker PerecTracker.org
BitTorrentTracker PerecTracker.org
    
Регистрация  ·  Вход
 
 · 
Забыли пароль?

  • Жених из Цирка / The Fiance from Circus (Давид Бабаханян / David Babakhanyan) [2011, Армения, комедия, мелодрама, DVDRip] VO (Сергей Овсепян)

    Ответить на тему
     
    Автор Сообщение

    Light

    Создавать темы 13-Окт-2015 04:27

           

    [Цитировать]

    Жених из Цирка / The Fiance from Circus
    Страна: Армения
    Жанр: комедия, мелодрама
    Год выпуска: 2011
    Продолжительность: 01:36:27
    Перевод: Одноголосый закадровый EarlyMorning (Сергей Овсепян)
    Cубтитры: Армянские
    Оригинальная аудиодорожка: Армянская
    Режиссер: Давид Бабаханян / David Babakhanyan
    В ролях: Ованнес Азоян, Серж Аведикян, Рози Аветисова, Вивьен Бастаджян, Самвел Саргсян, Сос Джанибекян, Нарек Дурян
    Описание: Главный герой фильма - Нарек, влюблен в дочь посла. Он приезжает в летний дом, где намечается его знакомство с родителями невесты. По профессии Нарек ветеринар и обстоятельства складываются так, что приезжает он не один а … с любимой обезьянкой Микки, которую не с кем было оставить. Герой понимает, что наличие обезьянки не лучшее решение для первого визита к родителям невесты, и делает все возможное, чтобы спрятать Микки. Но события выходят из под контроля…. В летнем доме посла закручивается смешная, полная неожиданностей и курьезов история…
    Сэмпл: http://multi-up.com/1070682

    Доп. информация:
    Перевод Sharm Pictures
    Рип делал сам

    Другие армянские фильмы на русском
    "Покер по правилам любви" (2012)
    Спасибо большое, что ждали этот перевод
    Буду очень признателен за любую помощь. (обращайтесь в ЛС)
    Так же жду отзывов
    Качество видео: DVDRip
    Формат видео: AVI
    Видео: XviD, 720x416, 1,731, 25,000 кадров/сек, 1832 Кбит/сек
    Аудио: MP3, 44,1 КГц, 128 Кбит/сек, 2 канала (Русский)
    Аудио 2: AC3, 48,0 КГц, 192 Кбит/сек, 2 канала (Армянский)
    Формат субтитров: hardsub (неотключаемые)
    Доп. информация о субтитрах: на ассирийскую речь

    MediaInfo

    Общее
    Полное имя : E:\свожу\Jenix.iz.cirka.2011.AC3.2ch.VO.avi
    Формат : AVI
    Формат/Информация : Audio Video Interleave
    Размер файла : 1,46 Гбайт
    Продолжительность : 1 ч. 36 м.
    Общий поток : 2167 Кбит/сек
    Программа кодирования : VirtualDubMod 1.5.10.2 (build 2540/release)
    Библиотека кодирования : VirtualDubMod build 2540/release
    Видео
    Идентификатор : 0
    Формат : MPEG-4 Visual
    Профиль формата : Advanced Simple@L5
    Параметр BVOP формата : 1
    Параметр QPel формата : Нет
    Параметр GMC формата : Без точки перехода
    Параметр матрицы формата : Выборочная
    Идентификатор кодека : XVID
    Идентификатор кодека/Подсказка : XviD
    Продолжительность : 1 ч. 36 м.
    Битрейт : 1832 Кбит/сек
    Ширина : 720 пикселей
    Высота : 416 пикселей
    Соотношение сторон : 1,731
    Частота кадров : 25,000 кадров/сек
    Цветовое пространство : YUV
    Субдискретизация насыщенности : 4:2:0
    Битовая глубина : 8 бит
    Тип развёртки : Прогрессивная
    Метод сжатия : С потерями
    Бит/(Пиксели*Кадры) : 0.245
    Размер потока : 1,23 Гбайт (85%)
    Библиотека кодирования : XviD 73
    Аудио #1
    Идентификатор : 1
    Формат : MPEG Audio
    Версия формата : Version 1
    Профиль формата : Layer 3
    Идентификатор кодека : 55
    Идентификатор кодека/Подсказка : MP3
    Продолжительность : 1 ч. 36 м.
    Вид битрейта : Постоянный
    Битрейт : 128 Кбит/сек
    Каналы : 2 канала
    Частота : 44,1 КГц
    Метод сжатия : С потерями
    Размер потока : 88,3 Мбайт (6%)
    Выравнивание : Разделение по промежуткам
    Продолжительность промежутка : 40 мс. (1,00 видеокадр)
    Время предзагрузки промежутка : 500 мс.
    Язык : English
    Аудио #2
    Идентификатор : 2
    Формат : AC-3
    Формат/Информация : Audio Coding 3
    Расширение режима : CM (complete main)
    Параметр Endianness формата : Big
    Идентификатор кодека : 2000
    Продолжительность : 1 ч. 36 м.
    Вид битрейта : Постоянный
    Битрейт : 192 Кбит/сек
    Каналы : 2 канала
    Расположение каналов : Front: L R
    Частота : 48,0 КГц
    Метод сжатия : С потерями
    Размер потока : 132 Мбайт (9%)
    Выравнивание : Разделение по промежуткам
    Продолжительность промежутка : 40 мс. (1,00 видеокадр)
    Время предзагрузки промежутка : 500 мс.

    Скриншот c названием фильма

    Скриншоты

    Скачать .torrent

    Скачать торрент-файл бесплатно и на максимальной скорости!

    Как скачивать? · Что такое торрент? · Рейтинг и ограничения

    !ВНИМАНИЕ!
    Сайт не распространяет и не хранит электронные версии произведений, а занимается лишь лишь предоставлением доступа к создаваемому пользователями каталогу ссылок на торрент-файлы, которые содержат только списки хеш-сумм, убедительная просьба с жалобами обращаться напрямую к пользователю. Файлы для обмена на трекере предоставлены пользователями сайта, и администрация не несёт ответственности за их содержание. Просьба не заливать файлы, защищенные авторскими правами, а также файлы нелегального содержания!


    _________________
    [Профиль] [ЛС]
    Показать сообщения:    
    Ответить на тему

    Текущее время: Сегодня, в 18:32

    Часовой пояс: GMT + 2



    Вы не можете начинать темы
    Вы не можете отвечать на сообщения
    Вы не можете редактировать свои сообщения
    Вы не можете удалять свои сообщения
    Вы не можете голосовать в опросах
    Вы не можете прикреплять файлы к сообщениям
    Вы не можете скачивать файлы