BitTorrentTracker PerecTracker.org
BitTorrentTracker PerecTracker.org
    
Регистрация  ·  Вход
 
 · 
Забыли пароль?

  • Повесть о настоящем человеке (Александр Столпер) [1948, СССР, военный фильм, драма, киноповесть, экранизация, DVDRip-AVC]

    Ответить на тему
     
    Автор Сообщение

    Light

    Создавать темы 13-Окт-2015 00:15

           

    [Цитировать]

    Повесть о настоящем человеке-Страна: СССР
    Студия: Мосфильм
    Жанр: военный фильм, драма, киноповесть, экранизация
    Год выпуска: 1948
    Продолжительность: 01:29:55.600-Cубтитры: нет-Режиссер: Александр Столпер
    В ролях: Павел Кадочников, Николай Охлопков, Алексей Дикий, Василий Меркурьев, Тамара Макарова, Людмила Целиковская, Лев Свердлин, Чеслав Сушкевич, Виктор Хохряков, Александр Михайлов, Борис Добронравов, Борис Бабочкин, Любовь Соколова, Владимир Грибков-Описание: Экранизация одноименной повести Бориса Полевого, основанной на реальных событиях. Летчик-истребитель Алексей Маресьев был сбит в бою, но выжил, потеряв обе ноги. Несмотря на ампутацию, он смог совершить практически невозможное: после упорных многодневных тренировок вновь поднял в небо боевой самолет.-Доп. информация: За исходный DVD спасибо alinto. На исходнике есть несколько проблем:
    1) Нарушен аспект - изображение приплюснуто, поскольку производители не учли пропорции пикселя для 4:3 PAL, посчитав что пиксель квадратен. Данный рип выполнен в оригинальном размере кадра с выставлением AR пикселя 1:1.
    2) В начальных титрах утрачен фрагмент длительностью 00:00:07.600. Данный фрагмент восстановлен из соседних кадров этого же исходника на основании покадрового сравнения с DVD изданием "Ретро клуб". Фрагмент звуковой дорожки на недостающий фрагмент взят с того же издания "Ретро клуб".
    3) На исходнике есть несколько фрагментов с обрезанным началом или окончанием фраз. Замеченные мною такие фразы заменены на целые из звуковой дорожки с издания "Ретро клуб".
    -Семпл: http://sendfile.su/1163873-Тип релиза: DVDRip-AVC
    Контейнер: MKV
    Видео: 698x576 (1.212), 25.000 fps, AVC, ~4172 kbps, 0.415 bits/pixel
    Аудио: Русский, 48.0 KHz, AC3, 1 ch, 192 kbps
    MediaInfo

    x264 log

    x264 [info]: 698x576p 1:1 @ 25/1 fps (cfr)
    x264 [info]: using SAR=1/1
    x264 [info]: using cpu capabilities: MMX2 SSE2Fast SSSE3 SSE4.2 AVX
    x264 [info]: profile High, level 4.0
    x264 [info]: cabac=1 ref=16 deblock=1:-1:-1 analyse=0x3:0x133 me=umh subme=11 psy=1 fade_compensate=0.00 psy_rd=1.00:0.00 mixed_ref=1 me_range=48 chroma_me=1 trellis=2 8x8dct=1 cqm=0 deadzone=21,11 fast_pskip=0 chroma_qp_offset=-2 threads=12 lookahead_threads=3 sliced_threads=0 nr=0 decimate=1 interlaced=0 bluray_compat=0 constrained_intra=0 fgo=0 bframes=16 b_pyramid=2 b_adapt=2 b_bias=0 direct=3 weightb=1 open_gop=0 weightp=2 keyint=250 keyint_min=25 scenecut=40 intra_refresh=0 rc=crf mbtree=0 crf=18.0000 qcomp=0.60 qpmin=0 qpmax=69 qpstep=4 ip_ratio=1.40 pb_ratio=1.30 aq=1:0.90
    x264 [info]: frame I:578 Avg QP:20.11 size: 49269
    x264 [info]: frame P:23083 Avg QP:21.51 size: 31995
    x264 [info]: frame B:111229 Avg QP:23.89 size: 18927
    x264 [info]: consecutive B-frames: 0.9% 0.4% 1.4% 11.8% 15.6% 33.2% 12.5% 6.5% 10.5% 2.5% 2.1% 0.7% 0.9% 0.4% 0.4% 0.1% 0.2%
    x264 [info]: mb I I16..4: 1.7% 87.7% 10.6%
    x264 [info]: mb P I16..4: 0.1% 16.5% 0.7% P16..4: 27.0% 36.5% 18.2% 1.0% 0.0% skip: 0.1%
    x264 [info]: mb B I16..4: 0.0% 4.6% 0.1% B16..8: 38.8% 26.6% 7.3% direct:13.9% skip: 8.8% L0:47.3% L1:37.1% BI:15.6%
    x264 [info]: 8x8 transform intra:96.4% inter:70.9%
    x264 [info]: direct mvs spatial:100.0% temporal:0.0%
    x264 [info]: coded y,uvDC,uvAC intra: 99.4% 0.0% 0.0% inter: 65.8% 0.0% 0.0%
    x264 [info]: i16 v,h,dc,p: 18% 49% 2% 31%
    x264 [info]: i8 v,h,dc,ddl,ddr,vr,hd,vl,hu: 7% 8% 7% 10% 16% 12% 16% 10% 14%
    x264 [info]: i4 v,h,dc,ddl,ddr,vr,hd,vl,hu: 8% 9% 2% 8% 17% 14% 18% 10% 14%
    x264 [info]: i8c dc,h,v,p: 95% 5% 0% 0%
    x264 [info]: Weighted P-Frames: Y:62.9% UV:0.0%
    x264 [info]: ref P L0: 29.7% 9.2% 11.9% 9.5% 7.1% 6.0% 5.1% 3.3% 3.0% 2.7% 2.5% 2.3% 2.1% 2.1% 2.0% 1.5%
    x264 [info]: ref B L0: 56.3% 12.7% 7.5% 4.6% 3.6% 3.1% 2.6% 1.8% 1.6% 1.5% 1.3% 1.2% 1.2% 0.7% 0.3%
    x264 [info]: ref B L1: 89.4% 10.6%
    x264 [info]: kb/s:4258.66
    x264 [info]: encoded 134890 frames, 7.28 fps, 4258.66 kb/s, duration 5:08:50.50
    GeneralUnique ID : 233694491129389210343743232232272968145 (0xAFCFEBFD1474425EB968BB88397C39D1)Complete name : Повесть.о.настоящем.человеке.1948.DVDRip.AVC.AC3-rutracker.xfiles.mkvFormat : MatroskaFormat version : Version 4 / Version 2File size : 2.80 GiBDuration : 1h 29mnOverall bit rate : 4 454 KbpsMovie name : Повесть о настоящем человеке 1948 DVDRip AVC AC3-rutracker.xfilesEncoded date : UTC 2015-10-12 17:18:18Writing application : mkvmerge v8.3.0 ('Over the Horizon') 64bitWriting library : libebml v1.3.1 + libmatroska v1.4.2Attachements : cover.jpg / x264.log
    VideoID : 1Format : AVCFormat/Info : Advanced Video CodecFormat profile : High@L4Format settings, CABAC : YesFormat settings, ReFrames : 16 framesCodec ID : V_MPEG4/ISO/AVCDuration : 1h 29mnBit rate : 4 173 KbpsWidth : 698 pixelsHeight : 576 pixelsDisplay aspect ratio : 1.212Frame rate mode : ConstantFrame rate : 25.000 fpsColor space : YUVChroma subsampling : 4:2:0Bit depth : 8 bitsScan type : ProgressiveBits/(Pixel*Frame) : 0.415Stream size : 2.62 GiB (94%)Title : http://perectracker.org/viewtopic.php?t=5096035Writing library : x264 core 148 r2597kMod e86f3a1Encoding settings : cabac=1 / ref=16 / deblock=1:-1:-1 / analyse=0x3:0x133 / me=umh / subme=11 / psy=1 / fade_compensate=0.00 / psy_rd=1.00:0.00 / mixed_ref=1 / me_range=48 / chroma_me=1 / trellis=2 / 8x8dct=1 / cqm=0 / deadzone=21,11 / fast_pskip=0 / chroma_qp_offset=-2 / threads=12 / lookahead_threads=3 / sliced_threads=0 / nr=0 / decimate=1 / interlaced=0 / bluray_compat=0 / constrained_intra=0 / fgo=0 / bframes=16 / b_pyramid=2 / b_adapt=2 / b_bias=0 / direct=3 / weightb=1 / open_gop=0 / weightp=2 / keyint=250 / keyint_min=25 / scenecut=40 / intra_refresh=0 / rc=crf / mbtree=0 / crf=18.0000 / qcomp=0.60 / qpmin=0 / qpmax=69 / qpstep=4 / ip_ratio=1.40 / pb_ratio=1.30 / aq=1:0.90Language : RussianDefault : YesForced : NoColor range : LimitedColor primaries : BT.601 PALTransfer characteristics : BT.470 System B, BT.470 System GMatrix coefficients : BT.601
    AudioID : 2Format : AC-3Format/Info : Audio Coding 3Mode extension : CM (complete main)Format settings, Endianness : BigCodec ID : A_AC3Duration : 1h 29mnBit rate mode : ConstantBit rate : 192 KbpsChannel(s) : 1 channelChannel positions : Front: CSampling rate : 48.0 KHzCompression mode : LossyStream size : 123 MiB (4%)Language : RussianDefault : YesForced : No

    Скриншоты сравнения: Source DVD | Filtered Source | Rip



    Скриншоты




    Скачать .torrent

    Скачать торрент-файл бесплатно и на максимальной скорости!

    Как скачивать? · Что такое торрент? · Рейтинг и ограничения

    !ВНИМАНИЕ!
    Сайт не распространяет и не хранит электронные версии произведений, а занимается лишь лишь предоставлением доступа к создаваемому пользователями каталогу ссылок на торрент-файлы, которые содержат только списки хеш-сумм, убедительная просьба с жалобами обращаться напрямую к пользователю. Файлы для обмена на трекере предоставлены пользователями сайта, и администрация не несёт ответственности за их содержание. Просьба не заливать файлы, защищенные авторскими правами, а также файлы нелегального содержания!


    _________________
    [Профиль] [ЛС]
    Показать сообщения:    
    Ответить на тему

    Текущее время: Сегодня, в 11:59

    Часовой пояс: GMT + 2



    Вы не можете начинать темы
    Вы не можете отвечать на сообщения
    Вы не можете редактировать свои сообщения
    Вы не можете удалять свои сообщения
    Вы не можете голосовать в опросах
    Вы не можете прикреплять файлы к сообщениям
    Вы не можете скачивать файлы