BitTorrentTracker PerecTracker.org
BitTorrentTracker PerecTracker.org
    
Регистрация  ·  Вход
 
 · 
Забыли пароль?

  • Джек-Медвежонок / Джек-медведь / Jack the Bear (Маршалл Херсковиц / Marshall Herskovitz) [1993, США, драма, семейный, HDTV 1080i] [Open Matte] MVO (1 канал)

    Ответить на тему
     
    Автор Сообщение

    Flirldrerve

    Создавать темы 12-Окт-2015 20:03

           

    [Цитировать]

    Джек-Медвежонок / Джек-медведь / Jack the Bear / Open Matte
    Страна: США
    Жанр: драма, семейный
    Год выпуска: 1993
    Продолжительность: 01:32:38
    Перевод: Профессиональный (многоголосый закадровый) 1 канал
    Cубтитры: нет
    Оригинальная аудиодорожка: нет
    Режиссер: Маршалл Херсковиц / Marshall Herskovitz
    В ролях: Дэнни ДеВито, Роберт Дж. Стайнмиллер мл., Мико Хьюз, Гэри Синиз, Арт ЛаФлёр, Стефан Гираш, Эрика Йон, Андреа Марковиччи, Джулия Луис-Дрейфус, Риз Уизерспун ...
    Описание: Жизнь телеведущего шоу ужасов Джона Лири была радостной и счастливой до того страшного дня, когда его жена разбилась в автокатастрофе. После ее гибели Джон остается один с двумя сыновьями. Хозяйственные заботы и служебные неурядицы постепенно подрывают его дух, и бедняга начинает пить.
    Доп. информация: HDTV имеет большее наполнение кадра чем DVD http://screenshotcomparison.com/comparison/146197
    Сэмпл: http://multi-up.com/1070454
    Тип релиза: HDTV 1080i
    Контейнер: TS
    Видео: AVC, 1920x1080 (16:9), 25.000 fps, 11.7 Mbps (0.225 bit/pixel)
    Аудио: MP2, 48.0 KHz, 2 ch, 192 Kbps, CBR (Russian)

    MediaInfo

    Общее
    Идентификатор : 3 (0x3)
    Полное имя : K:\Джек-Медвежонок.ts
    Формат : MPEG-TS
    Размер файла : 8,06 Гбайт
    Продолжительность : 1 ч. 32 м.
    Режим общего битрейта : Переменный
    Общий поток : 12,5 Мбит/сек
    Видео
    Идентификатор : 2141 (0x85D)
    Идентификатор меню : 21004 (0x520C)
    Формат : AVC
    Формат/Информация : Advanced Video Codec
    Профиль формата : Main@L4
    Параметр CABAC формата : Да
    Параметр ReFrames формата : 3 кадра
    Идентификатор кодека : 27
    Продолжительность : 1 ч. 32 м.
    Битрейт : 11,7 Мбит/сек
    Ширина : 1920 пикселей
    Высота : 1080 пикселей
    Соотношение сторон : 16:9
    Частота кадров : 25,000 кадров/сек
    Стандарт вещания : Component
    Цветовое пространство : YUV
    Субдискретизация насыщенности : 4:2:0
    Битовая глубина : 8 бит
    Тип развёртки : Чересстрочная
    Порядок развёртки : Верхнее поле первое
    Бит/(Пиксели*Кадры) : 0.225
    Размер потока : 7,54 Гбайт (94%)
    Цветовой диапазон : Limited
    Основные цвета : BT.709
    Характеристики трансфера : BT.709
    Коэффициенты матрицы : BT.709
    Аудио
    Идентификатор : 2142 (0x85E)
    Идентификатор меню : 21004 (0x520C)
    Формат : MPEG Audio
    Версия формата : Version 1
    Профиль формата : Layer 2
    Идентификатор кодека : 4
    Продолжительность : 1 ч. 32 м.
    Вид битрейта : Постоянный
    Битрейт : 192 Кбит/сек
    Каналы : 2 канала
    Частота : 48,0 КГц
    Метод сжатия : С потерями
    Размер потока : 127 Мбайт (2%)
    Язык : Russian

    Скриншоты

    Скачать .torrent

    Скачать торрент-файл бесплатно и на максимальной скорости!

    Как скачивать? · Что такое торрент? · Рейтинг и ограничения

    !ВНИМАНИЕ!
    Сайт не распространяет и не хранит электронные версии произведений, а занимается лишь лишь предоставлением доступа к создаваемому пользователями каталогу ссылок на торрент-файлы, которые содержат только списки хеш-сумм, убедительная просьба с жалобами обращаться напрямую к пользователю. Файлы для обмена на трекере предоставлены пользователями сайта, и администрация не несёт ответственности за их содержание. Просьба не заливать файлы, защищенные авторскими правами, а также файлы нелегального содержания!


    _________________
    [Профиль] [ЛС]
    Показать сообщения:    
    Ответить на тему

    Текущее время: Сегодня, в 00:34

    Часовой пояс: GMT + 2



    Вы не можете начинать темы
    Вы не можете отвечать на сообщения
    Вы не можете редактировать свои сообщения
    Вы не можете удалять свои сообщения
    Вы не можете голосовать в опросах
    Вы не можете прикреплять файлы к сообщениям
    Вы не можете скачивать файлы