BitTorrentTracker PerecTracker.org
BitTorrentTracker PerecTracker.org
    
Регистрация  ·  Вход
 
 · 
Забыли пароль?

  • (Ethnic) VA - Шедевры этнической музыки - Чили - 2000, FLAC (tracks+.cue), lossless

    Ответить на тему
     
    Автор Сообщение

    Columb

    Создавать темы 24-Июл-2013 11:17

           

    [Цитировать]

    VA - Шедевры этнической музыки - Чили
    Жанр: Ethnic
    Страна-производитель диска: Russia
    Год издания: 2000
    Издатель (лейбл): AT music
    Номер по каталогу: ATE409
    Аудиокодек: FLAC (*.flac)
    Тип рипа: tracks+.cue
    Битрейт аудио: lossless
    Продолжительность: 01:17:56.
    Источник (релизер): clustert
    Наличие сканов в содержимом раздачи: да
    Трэклист:
    01. Любимый (Хоропо) [0:03:55.03]
    02. Плуг (Тонада) [0:04:31.36]
    03. Песчаная (Куэка) [0:02:47.29]
    04. Цветочная синева (Чакарера) [0:02:58.64]
    05. Спасибо за жизнь (Сирилья) [0:03:58.43]
    06. Дорога любви (Пассаж) [0:03:53.23]
    07. Холмы (Уайно, фольклор андино) [0:04:32.69]
    08. Подсвечник (Тонада) [0:03:12.37]
    09. Чилота из Сан-Хуана [0:05:32.63]
    10. Голубка (Северная песня) [0:03:49.63]
    11. Неблагодарная девушка (Вальс) [0:02:58.45]
    12. Ночь прекрасна (Вальс) [0:02:33.57]
    13. Я родился независимым (Куэка) [0:02:23.27]
    14. Качимбо с фестиваля [0:03:14.74]
    15. Сахарная плантация [0:03:02.03]
    16. Чай матэ (Ранчера) [0:03:14.17]
    17. Осколки (Куэка) [0:01:56.69]
    18. Жестянщик (Вальс) [0:03:04.69]
    19. Апельсиновое море (Тонада) [0:03:10.43]
    20. Эрнан Нуньес (Куэка) [0:02:17.23]
    21. Нет денег в моих карманах (Ранчера) [0:02:57.43]
    22. Адиос, Малаэнья [0:02:34.07]
    23. Дорога инков (Куэка) [0:01:55.39]
    24. Едем в порт (Куэка) [0:02:08.23]
    25. Прощай [0:01:11.59]

    Лог создания рипа

    Exact Audio Copy V1.0 beta 3 from 29. August 2011
    Отчёт EAC об извлечении, выполненном 23. июля 2013, 16:07
    Фольклорные ансамбли / Шедевры этнической музыки-Чили
    Дисковод: ASUS DRW-1814BLT Adapter: 4 ID: 0
    Режим чтения : Достоверность
    Использование точного потока : Да
    Отключение кэша аудио : Да
    Использование указателей C2 : Нет
    Коррекция смещения при чтении : 6
    Способность читать области Lead-in и Lead-out : Нет
    Заполнение пропущенных сэмплов тишиной : Да
    Удаление блоков с тишиной в начале и конце : Нет
    При вычислениях CRC использовались нулевые сэмплы : Да
    Интерфейс : Встроенный Win32-интерфейс для Win NT/2000
    Обработка зазоров : Добавлено к предыдущему треку
    Выходной формат : Пользовательский кодировщик
    Выбранный битрейт : 128 kBit/s
    Качество : Высокий
    Добавление ID3-тега : Нет
    Утилита сжатия : C:\Program Files\Exact Audio Copy\Flac\flac.exe
    Дополнительные параметры : -V -8 -T "Genre=%genre%" -T "Artist=%artist%" -T "Title=%title%" -T "Album=%albumtitle%" -T "Date=%year%" -T "Tracknumber=%tracknr%" -T "Comment=EAC1.0b2 FLAC -8" %source%
    TOC извлечённого CD
    Трек | Старт | Длительность | Начальный сектор | Конечный сектор
    ---------------------------------------------------------------------
    1 | 0:00.00 | 3:55.03 | 0 | 17627
    2 | 3:55.03 | 4:31.36 | 17628 | 37988
    3 | 8:26.39 | 2:47.29 | 37989 | 50542
    4 | 11:13.68 | 2:58.64 | 50543 | 63956
    5 | 14:12.57 | 3:58.43 | 63957 | 81849
    6 | 18:11.25 | 3:53.23 | 81850 | 99347
    7 | 22:04.48 | 4:32.69 | 99348 | 119816
    8 | 26:37.42 | 3:12.37 | 119817 | 134253
    9 | 29:50.04 | 5:32.63 | 134254 | 159216
    10 | 35:22.67 | 3:49.63 | 159217 | 176454
    11 | 39:12.55 | 2:58.45 | 176455 | 189849
    12 | 42:11.25 | 2:33.57 | 189850 | 201381
    13 | 44:45.07 | 2:23.27 | 201382 | 212133
    14 | 47:08.34 | 3:14.74 | 212134 | 226757
    15 | 50:23.33 | 3:02.03 | 226758 | 240410
    16 | 53:25.36 | 3:14.17 | 240411 | 254977
    17 | 56:39.53 | 1:56.69 | 254978 | 263746
    18 | 58:36.47 | 3:04.69 | 263747 | 277615
    19 | 61:41.41 | 3:10.43 | 277616 | 291908
    20 | 64:52.09 | 2:17.23 | 291909 | 302206
    21 | 67:09.32 | 2:57.43 | 302207 | 315524
    22 | 70:07.00 | 2:34.07 | 315525 | 327081
    23 | 72:41.07 | 1:55.39 | 327082 | 335745
    24 | 74:36.46 | 2:08.23 | 335746 | 345368
    25 | 76:44.69 | 1:11.59 | 345369 | 350752
    Трек 1
    Имя файла R:\Шедевры этнической музыки\Чили\01 Любимый (Хоропо).wav
    Длина предзазора 0:00:02.00
    Пиковый уровень 95.0 %
    Скорость извлечения 2.6 X
    Качество трека 99.9 %
    CRC теста 2F03FA1D
    CRC копии 2F03FA1D
    Копирование... OK
    Трек 2
    Имя файла R:\Шедевры этнической музыки\Чили\02 Плуг (Тонада).wav
    Пиковый уровень 89.9 %
    Скорость извлечения 3.3 X
    Качество трека 100.0 %
    CRC теста 76B44C02
    CRC копии 76B44C02
    Копирование... OK
    Трек 3
    Имя файла R:\Шедевры этнической музыки\Чили\03 Песчаная (Куэка).wav
    Пиковый уровень 95.2 %
    Скорость извлечения 3.2 X
    Качество трека 100.0 %
    CRC теста E95BF749
    CRC копии E95BF749
    Копирование... OK
    Трек 4
    Имя файла R:\Шедевры этнической музыки\Чили\04 Цветочная синева (Чакарера).wav
    Пиковый уровень 97.0 %
    Скорость извлечения 3.4 X
    Качество трека 100.0 %
    CRC теста 9160920A
    CRC копии 9160920A
    Копирование... OK
    Трек 5
    Имя файла R:\Шедевры этнической музыки\Чили\05 Спасибо за жизнь (Сирилья).wav
    Пиковый уровень 89.9 %
    Скорость извлечения 3.8 X
    Качество трека 100.0 %
    CRC теста 2843510A
    CRC копии 2843510A
    Копирование... OK
    Трек 6
    Имя файла R:\Шедевры этнической музыки\Чили\06 Дорога любви (Пассаж).wav
    Пиковый уровень 82.6 %
    Скорость извлечения 4.0 X
    Качество трека 100.0 %
    CRC теста 358939F0
    CRC копии 358939F0
    Копирование... OK
    Трек 7
    Имя файла R:\Шедевры этнической музыки\Чили\07 Холмы (Уайно, фольклор андино).wav
    Пиковый уровень 89.5 %
    Скорость извлечения 4.2 X
    Качество трека 100.0 %
    CRC теста ECE67E5F
    CRC копии ECE67E5F
    Копирование... OK
    Трек 8
    Имя файла R:\Шедевры этнической музыки\Чили\08 Подсвечник (Тонада).wav
    Пиковый уровень 94.4 %
    Скорость извлечения 4.2 X
    Качество трека 100.0 %
    CRC теста E78990DD
    CRC копии E78990DD
    Копирование... OK
    Трек 9
    Имя файла R:\Шедевры этнической музыки\Чили\09 Чилота из Сан-Хуана.wav
    Пиковый уровень 97.9 %
    Скорость извлечения 4.7 X
    Качество трека 100.0 %
    CRC теста 1DC730F4
    CRC копии 1DC730F4
    Копирование... OK
    Трек 10
    Имя файла R:\Шедевры этнической музыки\Чили\10 Голубка (Северная песня).wav
    Пиковый уровень 97.9 %
    Скорость извлечения 4.7 X
    Качество трека 100.0 %
    CRC теста 52CA8B28
    CRC копии 52CA8B28
    Копирование... OK
    Трек 11
    Имя файла R:\Шедевры этнической музыки\Чили\11 Неблагодарная девушка (Вальс).wav
    Пиковый уровень 97.9 %
    Скорость извлечения 4.0 X
    Качество трека 99.9 %
    CRC теста 6752663A
    CRC копии 6752663A
    Копирование... OK
    Трек 12
    Имя файла R:\Шедевры этнической музыки\Чили\12 Ночь прекрасна (Вальс).wav
    Пиковый уровень 97.9 %
    Скорость извлечения 4.6 X
    Качество трека 100.0 %
    CRC теста 2FDE8417
    CRC копии 2FDE8417
    Копирование... OK
    Трек 13
    Имя файла R:\Шедевры этнической музыки\Чили\13 Я родился независимым (Куэка).wav
    Пиковый уровень 97.9 %
    Скорость извлечения 4.6 X
    Качество трека 100.0 %
    CRC теста 9B456C0D
    CRC копии 9B456C0D
    Копирование... OK
    Трек 14
    Имя файла R:\Шедевры этнической музыки\Чили\14 Качимбо с фестиваля.wav
    Пиковый уровень 97.9 %
    Скорость извлечения 5.0 X
    Качество трека 100.0 %
    CRC теста 2F586B03
    CRC копии 2F586B03
    Копирование... OK
    Трек 15
    Имя файла R:\Шедевры этнической музыки\Чили\15 Сахарная плантация.wav
    Пиковый уровень 97.9 %
    Скорость извлечения 5.1 X
    Качество трека 100.0 %
    CRC теста 3CB5F750
    CRC копии 3CB5F750
    Копирование... OK
    Трек 16
    Имя файла R:\Шедевры этнической музыки\Чили\16 Чай матэ (Ранчера).wav
    Пиковый уровень 97.9 %
    Скорость извлечения 4.5 X
    Качество трека 99.9 %
    CRC теста E50B04F2
    CRC копии E50B04F2
    Копирование... OK
    Трек 17
    Имя файла R:\Шедевры этнической музыки\Чили\17 Осколки (Куэка).wav
    Пиковый уровень 97.9 %
    Скорость извлечения 4.8 X
    Качество трека 100.0 %
    CRC теста 758D9323
    CRC копии 758D9323
    Копирование... OK
    Трек 18
    Имя файла R:\Шедевры этнической музыки\Чили\18 Жестянщик (Вальс).wav
    Пиковый уровень 97.9 %
    Скорость извлечения 4.6 X
    Качество трека 99.9 %
    CRC теста 74850B7A
    CRC копии 74850B7A
    Копирование... OK
    Трек 19
    Имя файла R:\Шедевры этнической музыки\Чили\19 Апельсиновое море (Тонада).wav
    Пиковый уровень 97.9 %
    Скорость извлечения 4.7 X
    Качество трека 99.9 %
    CRC теста A8443C17
    CRC копии A8443C17
    Копирование... OK
    Трек 20
    Имя файла R:\Шедевры этнической музыки\Чили\20 Эрнан Нуньес (Куэка).wav
    Пиковый уровень 97.9 %
    Скорость извлечения 4.2 X
    Качество трека 99.9 %
    CRC теста 8D1897E7
    CRC копии EC51DE8C
    Копирование... OK
    Трек 21
    Имя файла R:\Шедевры этнической музыки\Чили\21 Нет денег в моих карманах (Ранчера).wav
    Пиковый уровень 97.9 %
    Скорость извлечения 5.5 X
    Качество трека 100.0 %
    CRC теста 04597B77
    CRC копии 04597B77
    Копирование... OK
    Трек 22
    Имя файла R:\Шедевры этнической музыки\Чили\22 Адиос, Малаэнья.wav
    Пиковый уровень 97.9 %
    Скорость извлечения 5.5 X
    Качество трека 100.0 %
    CRC теста EDACCB03
    CRC копии EDACCB03
    Копирование... OK
    Трек 23
    Имя файла R:\Шедевры этнической музыки\Чили\23 Дорога инков (Куэка).wav
    Пиковый уровень 97.9 %
    Скорость извлечения 4.2 X
    Качество трека 99.9 %
    CRC теста D9156BC4
    CRC копии D9156BC4
    Копирование... OK
    Трек 24
    Имя файла R:\Шедевры этнической музыки\Чили\24 Едем в порт (Куэка).wav
    Пиковый уровень 97.9 %
    Скорость извлечения 5.4 X
    Качество трека 100.0 %
    CRC теста 70B55119
    CRC копии 70B55119
    Копирование... OK
    Трек 25
    Имя файла R:\Шедевры этнической музыки\Чили\25 Прощай.wav
    Пиковый уровень 97.9 %
    Скорость извлечения 4.6 X
    Качество трека 100.0 %
    CRC теста 53B72906
    CRC копии 53B72906
    Копирование... OK
    Ошибок не произошло
    Конец отчёта
    ==== Контрольная сумма отчёта 7CEB58C224CF3B8CE3F5FF343E613AE80CF94150BDE18105171A3EE15CE46213 ====

    Содержание индексной карты (.CUE)

    REM GENRE Ethnic
    REM DATE 2000
    REM DISCID 6D124419
    REM COMMENT "ExactAudioCopy v1.0b3"
    PERFORMER "Фольклорные ансамбли"
    TITLE "Шедевры этнической музыки-Чили"
    FILE "01 Любимый (Хоропо).wav" WAVE
    TRACK 01 AUDIO
    TITLE "Любимый (Хоропо)"
    PERFORMER "Фольклорные ансамбли"
    INDEX 01 00:00:00
    FILE "02 Плуг (Тонада).wav" WAVE
    TRACK 02 AUDIO
    TITLE "Плуг (Тонада)"
    PERFORMER "Фольклорные ансамбли"
    INDEX 01 00:00:00
    FILE "03 Песчаная (Куэка).wav" WAVE
    TRACK 03 AUDIO
    TITLE "Песчаная (Куэка)"
    PERFORMER "Фольклорные ансамбли"
    INDEX 01 00:00:00
    FILE "04 Цветочная синева (Чакарера).wav" WAVE
    TRACK 04 AUDIO
    TITLE "Цветочная синева (Чакарера)"
    PERFORMER "Фольклорные ансамбли"
    INDEX 01 00:00:00
    FILE "05 Спасибо за жизнь (Сирилья).wav" WAVE
    TRACK 05 AUDIO
    TITLE "Спасибо за жизнь (Сирилья)"
    PERFORMER "Фольклорные ансамбли"
    INDEX 01 00:00:00
    FILE "06 Дорога любви (Пассаж).wav" WAVE
    TRACK 06 AUDIO
    TITLE "Дорога любви (Пассаж)"
    PERFORMER "Фольклорные ансамбли"
    INDEX 01 00:00:00
    FILE "07 Холмы (Уайно, фольклор андино).wav" WAVE
    TRACK 07 AUDIO
    TITLE "Холмы (Уайно, фольклор андино)"
    PERFORMER "Фольклорные ансамбли"
    INDEX 01 00:00:00
    FILE "08 Подсвечник (Тонада).wav" WAVE
    TRACK 08 AUDIO
    TITLE "Подсвечник (Тонада)"
    PERFORMER "Фольклорные ансамбли"
    INDEX 01 00:00:00
    FILE "09 Чилота из Сан-Хуана.wav" WAVE
    TRACK 09 AUDIO
    TITLE "Чилота из Сан-Хуана"
    PERFORMER "Фольклорные ансамбли"
    INDEX 01 00:00:00
    FILE "10 Голубка (Северная песня).wav" WAVE
    TRACK 10 AUDIO
    TITLE "Голубка (Северная песня)"
    PERFORMER "Фольклорные ансамбли"
    INDEX 01 00:00:00
    FILE "11 Неблагодарная девушка (Вальс).wav" WAVE
    TRACK 11 AUDIO
    TITLE "Неблагодарная девушка (Вальс)"
    PERFORMER "Фольклорные ансамбли"
    INDEX 01 00:00:00
    FILE "12 Ночь прекрасна (Вальс).wav" WAVE
    TRACK 12 AUDIO
    TITLE "Ночь прекрасна (Вальс)"
    PERFORMER "Фольклорные ансамбли"
    INDEX 01 00:00:00
    FILE "13 Я родился независимым (Куэка).wav" WAVE
    TRACK 13 AUDIO
    TITLE "Я родился независимым (Куэка)"
    PERFORMER "Фольклорные ансамбли"
    INDEX 01 00:00:00
    FILE "14 Качимбо с фестиваля.wav" WAVE
    TRACK 14 AUDIO
    TITLE "Качимбо с фестиваля"
    PERFORMER "Фольклорные ансамбли"
    INDEX 01 00:00:00
    FILE "15 Сахарная плантация.wav" WAVE
    TRACK 15 AUDIO
    TITLE "Сахарная плантация"
    PERFORMER "Фольклорные ансамбли"
    INDEX 01 00:00:00
    FILE "16 Чай матэ (Ранчера).wav" WAVE
    TRACK 16 AUDIO
    TITLE "Чай матэ (Ранчера)"
    PERFORMER "Фольклорные ансамбли"
    INDEX 01 00:00:00
    FILE "17 Осколки (Куэка).wav" WAVE
    TRACK 17 AUDIO
    TITLE "Осколки (Куэка)"
    PERFORMER "Фольклорные ансамбли"
    INDEX 01 00:00:00
    FILE "18 Жестянщик (Вальс).wav" WAVE
    TRACK 18 AUDIO
    TITLE "Жестянщик (Вальс)"
    PERFORMER "Фольклорные ансамбли"
    INDEX 01 00:00:00
    FILE "19 Апельсиновое море (Тонада).wav" WAVE
    TRACK 19 AUDIO
    TITLE "Апельсиновое море (Тонада)"
    PERFORMER "Фольклорные ансамбли"
    INDEX 01 00:00:00
    FILE "20 Эрнан Нуньес (Куэка).wav" WAVE
    TRACK 20 AUDIO
    TITLE "Эрнан Нуньес (Куэка)"
    PERFORMER "Фольклорные ансамбли"
    INDEX 01 00:00:00
    FILE "21 Нет денег в моих карманах (Ранчера).wav" WAVE
    TRACK 21 AUDIO
    TITLE "Нет денег в моих карманах (Ранчера)"
    PERFORMER "Фольклорные ансамбли"
    INDEX 01 00:00:00
    FILE "22 Адиос, Малаэнья.wav" WAVE
    TRACK 22 AUDIO
    TITLE "Адиос, Малаэнья"
    PERFORMER "Фольклорные ансамбли"
    INDEX 01 00:00:00
    FILE "23 Дорога инков (Куэка).wav" WAVE
    TRACK 23 AUDIO
    TITLE "Дорога инков (Куэка)"
    PERFORMER "Фольклорные ансамбли"
    INDEX 01 00:00:00
    FILE "24 Едем в порт (Куэка).wav" WAVE
    TRACK 24 AUDIO
    TITLE "Едем в порт (Куэка)"
    PERFORMER "Фольклорные ансамбли"
    INDEX 01 00:00:00
    FILE "25 Прощай.wav" WAVE
    TRACK 25 AUDIO
    TITLE "Прощай"
    PERFORMER "Фольклорные ансамбли"
    INDEX 01 00:00:00
    Скачать .torrent

    Скачать торрент-файл бесплатно и на максимальной скорости!

    Как скачивать? · Что такое торрент? · Рейтинг и ограничения

    !ВНИМАНИЕ!
    Сайт не распространяет и не хранит электронные версии произведений, а занимается лишь лишь предоставлением доступа к создаваемому пользователями каталогу ссылок на торрент-файлы, которые содержат только списки хеш-сумм, убедительная просьба с жалобами обращаться напрямую к пользователю. Файлы для обмена на трекере предоставлены пользователями сайта, и администрация не несёт ответственности за их содержание. Просьба не заливать файлы, защищенные авторскими правами, а также файлы нелегального содержания!

    [Профиль] [ЛС]
    Показать сообщения:    
    Ответить на тему

    Текущее время: Сегодня, в 06:14

    Часовой пояс: GMT + 2



    Вы не можете начинать темы
    Вы не можете отвечать на сообщения
    Вы не можете редактировать свои сообщения
    Вы не можете удалять свои сообщения
    Вы не можете голосовать в опросах
    Вы не можете прикреплять файлы к сообщениям
    Вы не можете скачивать файлы