BitTorrentTracker PerecTracker.org
BitTorrentTracker PerecTracker.org
    
Регистрация  ·  Вход
 
 · 
Забыли пароль?

  • (Mainstream Jazz) Stan Getz - Focus (1961) - 1984, FLAC (image+.cue), lossless

    Ответить на тему
     
    Автор Сообщение

    Columb

    Создавать темы 24-Июл-2013 11:13

           

    [Цитировать]

    Stan Getz – Focus (1961)
    Жанр: Mainstream Jazz
    Страна-производитель диска: Germany
    Год издания: 1984
    Издатель (лейбл): Verve
    Номер по каталогу: 821 982-2
    Аудиокодек: FLAC (*.flac)
    Тип рипа: image+.cue
    Битрейт аудио: lossless
    Продолжительность: 38:18
    Rip by triGada
    Наличие сканов в содержимом раздачи: да
    Трэклист:
    01. I'm Late, I'm Late (8:12)
    02. Her (6:14)
    03. Pan (3:59)
    04. I Remember When (5:05)
    05. Night Rider (3:59)
    06. Once Upon A Time (4:49)
    07. A Summer Afternoon (6:00)
    Personnel:
    Stan Getz -ts
    Steve Kuhn - p
    John Neves - b
    Roy Haynes - d
    Alan Martin, Norman Carr, Gerald Tarack - vln
    Jacob Glick - vla
    Bruce Rogers - clo
    Eddie Sauter - arr
    Hershy Kay - con
    Rec.: Webster Hall, New York City, NY, July 14 & 28, and September - October, 1961.

    Лог создания рипа

    Exact Audio Copy V1.0 beta 3 from 29. August 2011
    EAC extraction logfile from 11. July 2013, 23:34
    Stan Getz / Focus
    Used drive : Optiarc DVD RW AD-7280S Adapter: 3 ID: 1
    Read mode : Secure
    Utilize accurate stream : Yes
    Defeat audio cache : Yes
    Make use of C2 pointers : No
    Read offset correction : 48
    Overread into Lead-In and Lead-Out : No
    Fill up missing offset samples with silence : Yes
    Delete leading and trailing silent blocks : No
    Null samples used in CRC calculations : Yes
    Used interface : Native Win32 interface for Win NT & 2000
    Used output format : User Defined Encoder
    Selected bitrate : 1024 kBit/s
    Quality : High
    Add ID3 tag : No
    Command line compressor : C:\Program Files (x86)\Exact Audio Copy\wavpack.exe
    Additional command line options : -hlmx2 %source% %dest%
    TOC of the extracted CD
    Track | Start | Length | Start sector | End sector
    ---------------------------------------------------------
    1 | 0:00.32 | 8:12.05 | 32 | 36936
    2 | 8:12.37 | 6:13.63 | 36937 | 64974
    3 | 14:26.25 | 3:58.70 | 64975 | 82894
    4 | 18:25.20 | 5:05.05 | 82895 | 105774
    5 | 23:30.25 | 3:58.50 | 105775 | 123674
    6 | 27:29.00 | 4:49.25 | 123675 | 145374
    7 | 32:18.25 | 6:00.02 | 145375 | 172376
    Range status and errors
    Selected range
    Filename I:\Prepare\Stan Getz - Focus\Stan Getz - Focus.wav
    Peak level 81.1 %
    Extraction speed 6.8 X
    Range quality 100.0 %
    Test CRC 76F53C37
    Copy CRC 76F53C37
    Copy OK
    No errors occurred
    AccurateRip summary
    Track 1 not present in database
    Track 2 not present in database
    Track 3 not present in database
    Track 4 not present in database
    Track 5 not present in database
    Track 6 not present in database
    Track 7 not present in database
    None of the tracks are present in the AccurateRip database
    End of status report
    ==== Log checksum 0291E4E5764EC887B085867A69A71DD127D665DD360AE0F430FAF7FE333278CE ====

    Содержание индексной карты (.CUE)

    п»їREM GENRE "Jazz"
    REM DATE 1961
    REM DISCID 5508FA07
    REM COMMENT "ExactAudioCopy v1.0b3"
    CATALOG 0042282198228
    PERFORMER "Stan Getz"
    TITLE "Focus"
    FILE "Stan Getz - Focus.flac" WAVE
    TRACK 01 AUDIO
    TITLE "I'm Late, I'm Late"
    PERFORMER "Stan Getz"
    ISRC USF096100010
    INDEX 00 00:00:00
    INDEX 01 00:00:32
    TRACK 02 AUDIO
    TITLE "Her"
    PERFORMER "Stan Getz"
    ISRC USF096100020
    INDEX 00 08:09:02
    INDEX 01 08:12:37
    TRACK 03 AUDIO
    TITLE "Pan"
    PERFORMER "Stan Getz"
    ISRC USF096100030
    INDEX 00 14:22:37
    INDEX 01 14:26:25
    TRACK 04 AUDIO
    TITLE "I Remember When"
    PERFORMER "Stan Getz"
    ISRC USF096100040
    INDEX 00 18:22:07
    INDEX 01 18:25:20
    TRACK 05 AUDIO
    TITLE "Night Rider"
    PERFORMER "Stan Getz"
    ISRC USF096100050
    INDEX 00 23:26:37
    INDEX 01 23:30:25
    TRACK 06 AUDIO
    TITLE "Once Upon A Time"
    PERFORMER "Stan Getz"
    ISRC USF096100060
    INDEX 00 27:26:29
    INDEX 01 27:29:00
    TRACK 07 AUDIO
    TITLE "A Summer Afternoon"
    PERFORMER "Stan Getz"
    ISRC USF096100070
    INDEX 00 32:15:57
    INDEX 01 32:18:25

    CUETools log

    [CUETools log; Date: 23.07.2013 16:16:49; Version: 2.0.9]
    Pregap length 00:00:32.
    [CTDB TOCID: 2Glwl3n9sUpV9gLNul3uBE.52XI-] disk not present in database.
    [AccurateRip ID: 000b2b89-00411fc9-5508fa07] found.
    Track [ CRC ] Status
    01 [bce17377] (0/0) No match
    02 [859eaed1] (0/0) No match
    03 [d7b86f3d] (0/0) No match
    04 [57deceee] (0/0) No match
    05 [173350eb] (0/0) No match
    06 [a6599f86] (0/0) No match
    07 [e56bd56d] (0/0) No match
    Track Peak [ CRC32 ] [W/O NULL] [ LOG ]
    -- 81,1 [76F53C37] [7D783A94] CRC32
    01 81,1 [84B11E42] [43137B08]
    02 48,5 [5230EF70] [278EE910]
    03 66,6 [BC4F09D0] [6C2DCA61]
    04 71,0 [A7320B2C] [EF5A4332]
    05 80,8 [BB8CF54B] [C67651A9]
    06 69,8 [DF63ABD0] [A3AD7303]
    07 58,9 [A10AD745] [CB4DBDF0]
    Скачать .torrent

    Скачать торрент-файл бесплатно и на максимальной скорости!

    Как скачивать? · Что такое торрент? · Рейтинг и ограничения

    !ВНИМАНИЕ!
    Сайт не распространяет и не хранит электронные версии произведений, а занимается лишь лишь предоставлением доступа к создаваемому пользователями каталогу ссылок на торрент-файлы, которые содержат только списки хеш-сумм, убедительная просьба с жалобами обращаться напрямую к пользователю. Файлы для обмена на трекере предоставлены пользователями сайта, и администрация не несёт ответственности за их содержание. Просьба не заливать файлы, защищенные авторскими правами, а также файлы нелегального содержания!

    [Профиль] [ЛС]
    Показать сообщения:    
    Ответить на тему

    Текущее время: Сегодня, в 12:45

    Часовой пояс: GMT + 2



    Вы не можете начинать темы
    Вы не можете отвечать на сообщения
    Вы не можете редактировать свои сообщения
    Вы не можете удалять свои сообщения
    Вы не можете голосовать в опросах
    Вы не можете прикреплять файлы к сообщениям
    Вы не можете скачивать файлы