BitTorrentTracker PerecTracker.org
BitTorrentTracker PerecTracker.org
    
Регистрация  ·  Вход
 
 · 
Забыли пароль?

  • Загородный дом / Das Sommerhaus (Курт Бури / Curtis Burz) [2014, Германия, Драма, WEB-DLRip-AVC] VO + Sub Rus + Original Ger

    Ответить на тему
     
    Автор Сообщение

    Light

    Создавать темы 12-Окт-2015 11:39

           

    [Цитировать]

    Загородный дом / Das Sommerhaus
    Страна: Германия
    Жанр: Драма
    Год выпуска: 2014
    Продолжительность: 01:40:40
    Перевод: Одноголосый закадровый
    Cубтитры: русские
    Оригинальная аудиодорожка: немецкий
    Режиссер: Курт Бури / Curtis Burz
    В ролях: Стэн Джейкобс / Sten Jacobs, Анна Альтман / Anna Altmann, Jaspar Fuld, Nina Splettsto?er, Stephan Burgi, Natascha Zimmermann, Felix Witzlau, Tobias Frieben, Leon Delor
    Описание: Успешный архитектор Маркус, его жена Кристина и лапочка-дочка Элизабет. Типичная добропорядочная семья, живущая на окраине Берлина. А ещё у них есть друг семьи Кристофер, его блудливая подружка Анна и 12-летний сын Йоханес. Но у каждой семьи свои секреты...
    Сэмпл: http://multi-up.com/1070813
    Качество видео: WEB-DLRip-AVC
    Формат видео: MKV
    Видео: AVC at 2228 Кбит/сек : 1280 x 720 (1.778) at 23.976 fps
    Аудио 1: MPEG Audio at 128 Кбит/сек : 2 канала, 48,0 КГц Language : ru
    Аудио 2: MPEG Audio at 128 Кбит/сек : 2 канала, 48,0 КГц Language : de
    Формат субтитров: softsub (SRT)
    Доп. информация о субтитрах: Русские внешние (San-ya), англ. встроенные неотключаемые

    MediaInfo

    Общее
    Уникальный идентификатор : 172865255545335283278816899086286980003 (0x820CA31F88361A8C9C6B5AB847F203A3)
    Полное имя : F:\С моей озвучкой\Загородный дом\Sommer.Haus.mkv
    Формат : Matroska
    Версия формата : Version 4 / Version 2
    Размер файла : 1,78 Гбайт
    Продолжительность : 1 ч. 40 м.
    Общий поток : 2534 Кбит/сек
    Дата кодирования : UTC 2015-10-11 20:12:24
    Программа кодирования : mkvmerge v7.9.0 ('Birds') 64bit
    Библиотека кодирования : libebml v1.3.1 + libmatroska v1.4.2
    DURATION : 01:40:40.176000000
    NUMBER_OF_FRAMES : 251674
    NUMBER_OF_BYTES : 96642816
    _STATISTICS_WRITING_APP : mkvmerge v7.9.0 ('Birds') 64bit
    _STATISTICS_WRITING_DATE_UTC : 2015-10-11 20:12:24
    _STATISTICS_TAGS : BPS DURATION NUMBER_OF_FRAMES NUMBER_OF_BYTES
    Видео
    Идентификатор : 1
    Формат : AVC
    Формат/Информация : Advanced Video Codec
    Профиль формата : Main@L4.0
    Параметр CABAC формата : Да
    Параметр ReFrames формата : 8 кадров
    Идентификатор кодека : V_MPEG4/ISO/AVC
    Продолжительность : 1 ч. 40 м.
    Битрейт : 2228 Кбит/сек
    Ширина : 1280 пикселей
    Высота : 720 пикселей
    Соотношение сторон : 16:9
    Режим частоты кадров : Постоянный
    Частота кадров : 23,976 кадра/сек
    Цветовое пространство : YUV
    Субдискретизация насыщенности : 4:2:0
    Битовая глубина : 8 бит
    Тип развёртки : Прогрессивная
    Бит/(Пиксели*Кадры) : 0.101
    Размер потока : 1,57 Гбайт (88%)
    Библиотека кодирования : Zencoder Video Encoding System
    Default : Да
    Forced : Нет
    Основные цвета : BT.709
    Характеристики трансфера : BT.709
    Коэффициенты матрицы : BT.709
    Аудио #1
    Идентификатор : 2
    Формат : MPEG Audio
    Версия формата : Version 1
    Профиль формата : Layer 3
    Режим : Joint stereo
    Расширение режима : MS Stereo
    Идентификатор кодека : A_MPEG/L3
    Идентификатор кодека/Подсказка : MP3
    Продолжительность : 1 ч. 40 м.
    Вид битрейта : Постоянный
    Битрейт : 128 Кбит/сек
    Каналы : 2 канала
    Частота : 48,0 КГц
    Метод сжатия : С потерями
    Размер потока : 92,2 Мбайт (5%)
    Библиотека кодирования : LAME3.96
    Язык : Russian
    Default : Да
    Forced : Нет
    Аудио #2
    Идентификатор : 3
    Формат : MPEG Audio
    Версия формата : Version 1
    Профиль формата : Layer 3
    Режим : Joint stereo
    Расширение режима : MS Stereo
    Идентификатор кодека : A_MPEG/L3
    Идентификатор кодека/Подсказка : MP3
    Продолжительность : 1 ч. 40 м.
    Вид битрейта : Постоянный
    Битрейт : 128 Кбит/сек
    Каналы : 2 канала
    Частота : 48,0 КГц
    Метод сжатия : С потерями
    Размер потока : 92,2 Мбайт (5%)
    Библиотека кодирования : LAME3.98
    Язык : German
    Default : Нет
    Forced : Нет

    Скриншоты

    Скачать .torrent

    Скачать торрент-файл бесплатно и на максимальной скорости!

    Как скачивать? · Что такое торрент? · Рейтинг и ограничения

    !ВНИМАНИЕ!
    Сайт не распространяет и не хранит электронные версии произведений, а занимается лишь лишь предоставлением доступа к создаваемому пользователями каталогу ссылок на торрент-файлы, которые содержат только списки хеш-сумм, убедительная просьба с жалобами обращаться напрямую к пользователю. Файлы для обмена на трекере предоставлены пользователями сайта, и администрация не несёт ответственности за их содержание. Просьба не заливать файлы, защищенные авторскими правами, а также файлы нелегального содержания!


    _________________
    [Профиль] [ЛС]
    Показать сообщения:    
    Ответить на тему

    Текущее время: Сегодня, в 06:04

    Часовой пояс: GMT + 2



    Вы не можете начинать темы
    Вы не можете отвечать на сообщения
    Вы не можете редактировать свои сообщения
    Вы не можете удалять свои сообщения
    Вы не можете голосовать в опросах
    Вы не можете прикреплять файлы к сообщениям
    Вы не можете скачивать файлы