BitTorrentTracker PerecTracker.org
BitTorrentTracker PerecTracker.org
    
Регистрация  ·  Вход
 
 · 
Забыли пароль?

  • Доктор Кто / Doctor Who / Сезон 9 (0-12 серии из 12) (Грэм Харпер, Эрос Лин, Дуглас Маккиннон) [2015, фантастика, драма, комедия, приключения, семейный, WEB-DLRip] MVO (BaibaKo) + Original + Subs (Rus, Eng)

    Ответить на тему
     
    Автор Сообщение

    older

    Создавать темы 12-Окт-2015 07:49

           

    [Цитировать]

    --Доктор Кто / Doctor Who-- Год выпуска: 2015
    Страна: Великобритания
    Жанр: фантастика, драма, комедия, приключения, семейный
    Продолжительность: ~ 00:46:00
    Перевод: Профессиональный (многоголосый закадровый) - BaibaKo
    Субтитры: русские, английские
    Режиссёр: Грэм Харпер, Эрос Лин, Дуглас Маккиннон- В ролях: Дэвид Теннант, Мэтт Смит, Кристофер Экклстон, Питер Капальди, Билли Пайпер, Карен Гиллан, Пол Кэйси, Артур Дарвилл, Николас Бриггс, Дженна Коулман- Описание: Сериал отображает приключения мистического инопланетянина-гуманоида называющего себя Доктор, без цели путешествующего через время и пространство в космическом корабле, который снаружи выглядит как полицейская будка 50-х годов. Доктор чрезвычайно эксцентричен и имеет невероятные знания в областях технологии, истории и науки. Он путешествует вместе со своими компаньонами, попутно борясь против космических злодеев и спасая Землю от бесчисленных врагов.
    - -Кодек: XviD
    Формат: AVI
    Качество: WEB-DLRip
    Видео: 720x400 (16:9), 1531 kbps, 25.000 fps, 0.213 bit/pixel
    Аудио 1: 48 kHz, MPEG Layer 3, 2 ch, 128.00 kbps - Ru
    Аудио 2: 48 kHz, MPEG Layer 3, 2 ch, 128.00 kbps - En
    Субтитры: Русские (TeamNotDead) - внешние, формат: SRT
    Субтитры: Английские - внешние, формат: SRT-

    Релиз

    Рип: qqss44
    Перевод: Татьяна Saavick
    Роли озвучивали: Светлана Доманова, Татьяна Оболевич, Anna_Smile, Алексей Кузнецов, Александр Фурман и Владимир Курдов
    Монтаж и сведение: Виталий Мартыняк

    MediaInfo

    Общее
    Полное имя                               : \Doctor Who (Season 9)\Doctor.Who.S09E01.The Magician's.Apprentice.XviD.BaibaKo.[qqss44].avi
    Формат                                   : AVI
    Формат/Информация                        : Audio Video Interleave
    Размер файла                             : 600 Мбайт
    Продолжительность                        : 46 м.
    Общий поток                              : 1801 Кбит/сек
    Программа кодирования                    : VirtualDubMod 1.5.10.3 | www.virtualdub-fr.org || (build 2550/release)
    Библиотека кодирования                   : VirtualDubMod build 2550/release
    Видео
    Идентификатор                            : 0
    Формат                                   : MPEG-4 Visual
    Профиль формата                          : Advanced Simple@L5
    Параметр BVOP формата                    : 2
    Параметр QPel формата                    : Нет
    Параметр GMC формата                     : Без точки перехода
    Параметр матрицы формата                 : Default (MPEG)
    Идентификатор кодека                     : XVID
    Идентификатор кодека/Подсказка           : XviD
    Продолжительность                        : 46 м.
    Битрейт                                  : 1531 Кбит/сек
    Ширина                                   : 720 пикселей
    Высота                                   : 400 пикселей
    Соотношение сторон                       : 16:9
    Частота кадров                           : 25,000 кадров/сек
    Цветовое пространство                    : YUV
    Субдискретизация насыщенности            : 4:2:0
    Битовая глубина                          : 8 бит
    Тип развёртки                            : Прогрессивная
    Метод сжатия                             : С потерями
    Бит/(Пиксели*Кадры)                      : 0.213
    Размер потока                            : 510 Мбайт (85%)
    Библиотека кодирования                   : XviD 73
    Аудио #1
    Идентификатор                            : 1
    Формат                                   : MPEG Audio
    Версия формата                           : Version 1
    Профиль формата                          : Layer 3
    Режим                                    : Joint stereo
    Идентификатор кодека                     : 55
    Идентификатор кодека/Подсказка           : MP3
    Продолжительность                        : 46 м.
    Вид битрейта                             : Постоянный
    Битрейт                                  : 128 Кбит/сек
    Каналы                                   : 2 канала
    Частота                                  : 48,0 КГц
    Метод сжатия                             : С потерями
    Размер потока                            : 42,6 Мбайт (7%)
    Выравнивание                             : Соединение по промежуткам
    Продолжительность промежутка             : 40  мс. (1,00 видеокадр)
    Время предзагрузки промежутка            : 504  мс.
    Аудио #2
    Идентификатор                            : 2
    Формат                                   : MPEG Audio
    Версия формата                           : Version 1
    Профиль формата                          : Layer 3
    Режим                                    : Joint stereo
    Расширение режима                        : MS Stereo
    Идентификатор кодека                     : 55
    Идентификатор кодека/Подсказка           : MP3
    Продолжительность                        : 46 м.
    Вид битрейта                             : Постоянный
    Битрейт                                  : 128 Кбит/сек
    Каналы                                   : 2 канала
    Частота                                  : 48,0 КГц
    Метод сжатия                             : С потерями
    Размер потока                            : 42,6 Мбайт (7%)
    Выравнивание                             : Соединение по промежуткам
    Продолжительность промежутка             : 40  мс. (1,00 видеокадр)
    Время предзагрузки промежутка            : 504  мс.

    Скриншоты

    Обновление раздачи

    При каждом добавлении создаётся новый торрент. Чтобы начать докачку новой серии, пользователям необходимо сделать следующее:
    1. Остановить скачивание,
    2. Удалить старый торрент у себя из клиента (старые серии удалять не надо),
    3. Скачать новый торрент и запустить его у себя в клиенте вместо старого, при этом указать клиенту путь в старую папку куда и должно происходить скачивание новых серий.
    Ваш клиент при этом должен произвести хеширование (проверку) старой папки (если не производит сам - помогите ему сделать это), и будет докачивать только те серии которых у вас ещё нет. Старые серии при этом не удаляются, а продолжают раздаваться!
    Если вы уже удалили старые серии, то предотвратить повторную закачку старых серий можно, отжав галочку в соответствующих местах при запуске нового торрента.
    Скачать .torrent

    Скачать торрент-файл бесплатно и на максимальной скорости!

    Как скачивать? · Что такое торрент? · Рейтинг и ограничения

    !ВНИМАНИЕ!
    Сайт не распространяет и не хранит электронные версии произведений, а занимается лишь лишь предоставлением доступа к создаваемому пользователями каталогу ссылок на торрент-файлы, которые содержат только списки хеш-сумм, убедительная просьба с жалобами обращаться напрямую к пользователю. Файлы для обмена на трекере предоставлены пользователями сайта, и администрация не несёт ответственности за их содержание. Просьба не заливать файлы, защищенные авторскими правами, а также файлы нелегального содержания!


    _________________


    Последний раз редактировалось: older (2015-12-11 15:09), всего редактировалось 4 раз(а)
    [Профиль] [ЛС]

    older ®

    Создавать темы 19-Окт-2015 15:52 (спустя 7 дней)

           

    [Цитировать]

    19.10.15. Раздача обновлена!
    Добавлена 5 серия.
    Перекачайте торрент файл!

    _________________
    [Профиль] [ЛС]

    older ®

    Создавать темы 03-Ноя-2015 07:15 (спустя 14 дней)

           

    [Цитировать]

    03.11.15. Раздача обновлена!
    Добавлены 6-7 серии.
    Перекачайте торрент файл!

    _________________
    [Профиль] [ЛС]

    older ®

    Создавать темы 20-Ноя-2015 08:27 (спустя 17 дней)

           

    [Цитировать]

    20.11.15. Роздача оновлена!
    Додані 8-9 серії.
    Перекачати торрент файл!

    _________________
    [Профиль] [ЛС]

    older ®

    Создавать темы 27-Ноя-2015 21:28 (спустя 7 дней)

           

    [Цитировать]

    27.11.15. Роздача оновлена!
    Додана 10 серія.
    Перекачати торрент файл!

    _________________
    [Профиль] [ЛС]

    older ®

    Создавать темы 11-Дек-2015 15:11 (спустя 13 дней)

           

    [Цитировать]

    11.12.15. Раздача обновлена!
    Добавлены 10-12, последние серии. Сезон представлен полностью.
    Перекачайте торрент файл!

    _________________
    [Профиль] [ЛС]
    Показать сообщения:    
    Ответить на тему

    Текущее время: Сегодня, в 01:17

    Часовой пояс: GMT + 2



    Вы не можете начинать темы
    Вы не можете отвечать на сообщения
    Вы не можете редактировать свои сообщения
    Вы не можете удалять свои сообщения
    Вы не можете голосовать в опросах
    Вы не можете прикреплять файлы к сообщениям
    Вы не можете скачивать файлы