BitTorrentTracker PerecTracker.org
BitTorrentTracker PerecTracker.org
    
Регистрация  ·  Вход
 
 · 
Забыли пароль?

  • Бывает и хуже / The Middle / Сезон: 6 / Серии: 1-24 из 24 (Джули Энн Робинсон) [2014, Комедия, WEB-DLRip] MVO (NewStudio) + Original

    Ответить на тему
     
    Автор Сообщение

    older

    Создавать темы 12-Окт-2015 03:47

           

    [Цитировать]

    -Бывает и хуже | the middle
    -Год выпуска: 2014
    Страна: США
    Жанр: Комедия
    Продолжительность: ~00:22:00-Перевод: Профессиональный (многоголосый закадровый) [NewStudio]
    Русские субтитры: нет
    Режиссёр: Джули Энн Робинсон-В ролях: Патриция Хитон, Нил Флинн, Чарли МакДермотт, Иден Шер, Аттикус Шаффер, Francis Bay (III), Патриция Белчер, Питер Брейтмайер
    -Описание: Семья среднего достатка, Хэки, живет в самом сердце Индианы и старается изо всех сил держаться на плаву в пучине сумасшедших будней. Этот сериал о несбыточных ожиданиях и безумных идеях, о повседневных неудачах и крохотных радостях жены и матери троих необычных детишек-Ссылка на предыдущие и альтернативные раздачи: тут-
    -Качество: WEB-DLRip
    Формат: AVI
    Видео: Xvid, 720x400 (16:9), 23.976fps, 1 217 Kbps, 0.176 bit/pixel
    Аудио: MP3, 48000Hz, stereo, 128kbps [NewStudio]
    Аудио 2: MP3, 48000Hz, stereo, 128kbps [Оригинал]
    Субтитры: отсутствуют-Релиз: -

    MediaInfo

    Общее
    Формат : AVI
    Формат/Информация : Audio Video Interleave
    Размер файла : 232 Мбайт
    Продолжительность : 21 м.
    Общий поток : 1485 Кбит/сек
    Программа кодирования : VirtualDubMod 1.5.10.2 (build 2540/release)
    Библиотека кодирования : VirtualDubMod build 2540/release
    Видео
    Идентификатор : 0
    Формат : MPEG-4 Visual
    Профиль формата : Advanced Simple@L5
    Параметр BVOP формата : 2
    Параметр QPel формата : Нет
    Параметр GMC формата : Без точки перехода
    Параметр матрицы формата : Default (MPEG)
    Идентификатор кодека : XVID
    Идентификатор кодека/Подсказка : XviD
    Продолжительность : 21 м.
    Битрейт : 1215 Кбит/сек
    Ширина : 720 пикселей
    Высота : 400 пикселей
    Соотношение сторон : 16:9
    Частота кадров : 23,976 кадра/сек
    Цветовое пространство : YUV
    Субдискретизация насыщенности : 4:2:0
    Битовая глубина : 8 бит
    Тип развёртки : Прогрессивная
    Метод сжатия : С потерями
    Бит/(Пиксели*Кадры) : 0.176
    Размер потока : 190 Мбайт (82%)
    Библиотека кодирования : XviD 64
    Аудио #1
    Идентификатор : 1
    Формат : MPEG Audio
    Версия формата : Version 1
    Профиль формата : Layer 3
    Режим : Joint stereo
    Расширение режима : MS Stereo
    Идентификатор кодека : 55
    Идентификатор кодека/Подсказка : MP3
    Продолжительность : 21 м.
    Вид битрейта : Постоянный
    Битрейт : 128 Кбит/сек
    Каналы : 2 канала
    Частота : 48,0 КГц
    Метод сжатия : С потерями
    Размер потока : 20,0 Мбайт (9%)
    Выравнивание : Соединение по промежуткам
    Продолжительность промежутка : 42 мс. (1,00 видеокадр)
    Время предзагрузки промежутка : 504 мс.
    Библиотека кодирования : LAME3.99r
    Настройки программы : -m j -V 4 -q 2 -lowpass 17 -b 128
    Аудио #2
    Идентификатор : 2
    Формат : MPEG Audio
    Версия формата : Version 1
    Профиль формата : Layer 3
    Режим : Joint stereo
    Расширение режима : MS Stereo
    Идентификатор кодека : 55
    Идентификатор кодека/Подсказка : MP3
    Продолжительность : 21 м.
    Вид битрейта : Постоянный
    Битрейт : 128 Кбит/сек
    Каналы : 2 канала
    Частота : 48,0 КГц
    Метод сжатия : С потерями
    Размер потока : 20,0 Мбайт (9%)
    Выравнивание : Соединение по промежуткам
    Продолжительность промежутка : 42 мс. (1,00 видеокадр)
    Время предзагрузки промежутка : 504 мс.
    Библиотека кодирования : LAME3.99r
    Настройки программы : -m j -V 4 -q 2 -lowpass 17 -b 128

    Скриншоты

    Список серий

    06x01 Unbraceable You | Не в скобках счастье
    06x02 The Lonliest Locker | Одиночество в шкафу
    06x03 Major Anxiety | Беспокойство
    06x04 The Table | Стол
    06x05 Halloween V | Хэллоуин: Часть Пятая
    06x06 The Sinkhole
    06x07 Thanksgiving VI | День благодарения: Часть VI
    06x08 The College Tour | Экскурсия по колледжу
    06x09 The Christmas Wall | Рождество на пределе
    06х10 Pam Freakin' Staggs
    06х11 A Quarry Story
    06х12 Hecks on a Train
    06x13 Valentine's Day VI | День святого Валентина 6
    06х14 The Answer | Ответ
    06х15 Steaming Pile of Guilt | Чувство вины
    06x16 Flirting with Disaster | Флирт на гране фола
    06x17 The Waiting Game | Мучительное ожидание
    06x18 Operation Infiltration | Операция внедрения
    06x19 Siblings and Sombreros
    06x20 Food Courting | Интриги в общепите
    06x21 Two of a Kind | Два сапога - пара
    06x22 While You Were Sleeping | Пока вы спали
    06x23 Mother's Day Reservations | Как отмечали День Матери
    06x24 The Graduate | Выпускной

    Внимание! Раздача ведется путём добавления новых серий!

    Внимание! Раздача ведётся путём добавления новых серий; при каждом добавлении создаётся новый торрент. Чтобы начать докачку новой серии, пользователям необходимо сделать следующее:
    (1) остановить скачивание,
    (2) удалить старый торрент у себя из клиента (старые серии удалять не надо),
    (3) скачать новый торрент и запустить его у себя в клиенте вместо старого, при этом указать клиенту путь в старую папку куда и должно происходить скачивание новых серий.
    Ваш клиент при этом должен произвести хеширование (проверку) старой папки (если не производит сам - помогите ему сделать это), и будет докачивать только те серии которых у вас ещё нет. Старые серии при этом не удаляются, а продолжают раздаваться!
    Eсли вы уже удалили старые серии, то предотвратить повторную закачку старых серий можно, отжав галочку в соответсвующих местах при запуске нового торрента.
    Скачать .torrent

    Скачать торрент-файл бесплатно и на максимальной скорости!

    Как скачивать? · Что такое торрент? · Рейтинг и ограничения

    !ВНИМАНИЕ!
    Сайт не распространяет и не хранит электронные версии произведений, а занимается лишь лишь предоставлением доступа к создаваемому пользователями каталогу ссылок на торрент-файлы, которые содержат только списки хеш-сумм, убедительная просьба с жалобами обращаться напрямую к пользователю. Файлы для обмена на трекере предоставлены пользователями сайта, и администрация не несёт ответственности за их содержание. Просьба не заливать файлы, защищенные авторскими правами, а также файлы нелегального содержания!


    _________________
    [Профиль] [ЛС]
    Показать сообщения:    
    Ответить на тему

    Текущее время: Сегодня, в 11:49

    Часовой пояс: GMT + 2



    Вы не можете начинать темы
    Вы не можете отвечать на сообщения
    Вы не можете редактировать свои сообщения
    Вы не можете удалять свои сообщения
    Вы не можете голосовать в опросах
    Вы не можете прикреплять файлы к сообщениям
    Вы не можете скачивать файлы