BitTorrentTracker PerecTracker.org
BitTorrentTracker PerecTracker.org
    
Регистрация  ·  Вход
 
 · 
Забыли пароль?

  • Ленинградская симфония (Захар Аграненко) [1957, Драма, военный, SATRip, AVC]

    Ответить на тему
     
    Автор Сообщение

    Light

    Создавать темы 11-Окт-2015 23:03

           

    [Цитировать]

    Ленинградская симфония
    Жанр: Драма, военный
    Страна: СССР
    Студия: Мосфильм
    Год выпуска: 1957
    Продолжительность: 01:31:40
    Режиссёр: Захар Аграненко
    В ролях:
    Владимир Соловьёв … Николай Логинов
    Ольга Малько … Валентина Орлова
    Сергей Курилов … Павел Орлов
    Елена Строева … Надежда Николаевна Волкова
    Роберт Бушков … Александр Волков, первая скрипка
    Жанна Сухопольская … Нина Сергеева, студентка
    Николай Крючков … Поляков, летчик
    Максим Штраух … Багдасаров
    Марк Перцовский … Орест Добросельский, дирижер
    Михаил Туманишвили … Ромашкин, музыкант - альт
    Евгений Тетерин … Громов, художник
    Микаэла Дроздовская … Ирина Бочарова, воспитательница
    Иван Коваль-Самборский … эпизод
    Фёдор Никитин … эпизод
    Алла Демидова … студентка на лекции
    Зоя Фёдорова … эпизод (нет в титрах)
    Юлиан Панич … эпизод (нет в титрах)
    Сергей Филиппов … эпизод (нет в титрах)
    Станислав Любшин … студент (нет в титрах)
    Описание: Лето 1942 года. В Дом радио Ленинграда прибывает партитура Седьмой симфонии Дмитрия Шостаковича. Исполнить ее невозможно, так как в оркестре осталось мало музыкантов. Командование присылает музыкантов со всех участков фронта. В день, когда Гитлер поклялся захватить Ленинград, симфония впервые прозвучала по радио...
    Дополнительная информация: Релиз:
    Автор рипа: pmv
    Исходник предоставлен Animat , за что ему Большое Спасибо!.
    * На одном из скринов можно увидеть сидящего в зале Дмитрия Шостаковича в очках
    (или человека, очень похожего на него).
    * В эпизодической роли снялся Станислав Любшин.
    * Первое появление на экране Аллы Демидовой.

    IMDb = 6,4/10 from 14 users -
    Кинопоиск = 7,9/10 (‎80) -
    ПРОСЬБА к СКАЧАВШИМ. НЕ УХОДИТЕ С РАЗДАЧИ, ПОМОГИТЕ ДРУГИМ СКАЧАТЬ!!!
    ВНИМАНИЕ!!! РИП ФОРМАТА mkv (кодек H.264) ВОСПРОИЗВОДИТСЯ НЕ НА ВСЕХ БЫТОВЫХ ВИДЕОПЛЕЕРАХ!!!
    Качество видео: SATRip
    Формат видео: MKV
    Видео: AVC (H264), 640x480 (1.33:1), 25.00 fps, 1 878 Kbps, 0.244 Bits/Pixel
    Аудио: AC3, 48 KHz, stereo (2 ch), 192.00 kbps

    MediaInfo

    General
    Complete name : D:\torrents\Ленинградская симфония (1957).mkv
    Format : Matroska
    File size : 1.35 GiB
    Duration : 1h 31mn
    Overall bit rate : 2 112 Kbps
    Encoded date : UTC 2015-10-10 03:28:09
    Writing application : mkvmerge v8.4.0 ('A better way to fly') 64bit
    Writing library : libebml v1.3.1 + libmatroska v1.4.2
    Video
    ID : 1
    Format : AVC
    Format/Info : Advanced Video Codec
    Format profile : High@L4.1
    Format settings, CABAC : Yes
    Format settings, ReFrames : 16 frames
    Muxing mode : Container profile=Unknown@4.1
    Codec ID : V_MPEG4/ISO/AVC
    Duration : 1h 31mn
    Bit rate : 1 878 Kbps
    Nominal bit rate : 1 920 Kbps
    Width : 640 pixels
    Height : 480 pixels
    Display aspect ratio : 4:3
    Frame rate : 25.000 fps
    Resolution : 8 bits
    Colorimetry : 4:2:0
    Scan type : Progressive
    Bits/(Pixel*Frame) : 0.244
    Stream size : 1.20 GiB (89%)
    Writing library : x264 core 146 r2538 121396c
    Encoding settings : cabac=1 / ref=16 / deblock=1:0:0 / analyse=0x3:0x133 / me=umh / subme=10 / psy=1 / psy_rd=1.00:0.00 / mixed_ref=1 / me_range=24 / chroma_me=1 / trellis=2 / 8x8dct=1 / cqm=0 / deadzone=21,11 / fast_pskip=1 / chroma_qp_offset=-2 / threads=30 / lookahead_threads=3 / sliced_threads=0 / nr=0 / decimate=1 / interlaced=0 / bluray_compat=0 / constrained_intra=0 / bframes=8 / b_pyramid=2 / b_adapt=2 / b_bias=0 / direct=3 / weightb=1 / open_gop=0 / weightp=2 / keyint=250 / keyint_min=25 / scenecut=40 / intra_refresh=0 / rc_lookahead=60 / rc=2pass / mbtree=1 / bitrate=1920 / ratetol=1.0 / qcomp=0.60 / qpmin=0 / qpmax=69 / qpstep=4 / cplxblur=20.0 / qblur=0.5 / ip_ratio=1.40 / aq=1:1.00
    Audio
    ID : 2
    Format : AC-3
    Format/Info : Audio Coding 3
    Codec ID : A_AC3
    Duration : 1h 31mn
    Bit rate mode : Constant
    Bit rate : 192 Kbps
    Channel(s) : 2 channels
    Channel positions : Front: L R
    Sampling rate : 48.0 KHz
    Stream size : 126 MiB (9%)
    Language : Russian

    Скриншот с названием фильма

    Скриншоты

    Сравнение с раздачей alexingor от 21-Декабря-2008

    alexingor, TVRip, 640 x 480, 735.3 Mb < > CaCa48, SATRip-AVC, 640 х 480, 1.35 Gb
    http://perectracker.org/viewtopic.php?t=1365276
    http://screenshotcomparison.com/comparison/146351
    МОИ РАЗДАЧИ НА РУТРЕКЕРЕ: http://perectracker.org/tracker.php?rid=27390064
    Скачать .torrent

    Скачать торрент-файл бесплатно и на максимальной скорости!

    Как скачивать? · Что такое торрент? · Рейтинг и ограничения

    !ВНИМАНИЕ!
    Сайт не распространяет и не хранит электронные версии произведений, а занимается лишь лишь предоставлением доступа к создаваемому пользователями каталогу ссылок на торрент-файлы, которые содержат только списки хеш-сумм, убедительная просьба с жалобами обращаться напрямую к пользователю. Файлы для обмена на трекере предоставлены пользователями сайта, и администрация не несёт ответственности за их содержание. Просьба не заливать файлы, защищенные авторскими правами, а также файлы нелегального содержания!


    _________________
    [Профиль] [ЛС]
    Показать сообщения:    
    Ответить на тему

    Текущее время: Сегодня, в 00:31

    Часовой пояс: GMT + 2



    Вы не можете начинать темы
    Вы не можете отвечать на сообщения
    Вы не можете редактировать свои сообщения
    Вы не можете удалять свои сообщения
    Вы не можете голосовать в опросах
    Вы не можете прикреплять файлы к сообщениям
    Вы не можете скачивать файлы