Register  ·  Log in
Forgot password?

  • Наследники / Descendants (Кенни Ортега / Kenny Ortega) [2015, США, фэнтези, комедия, приключения, DVB] Dub (Невафильм)

    Reply to topic
    Author Message


    Post 12-Oct-2015 00:03



    Наследники / Descendants--Страна: США
    Жанр: фэнтези, комедия, приключения
    Год выпуска: 2015
    Продолжительность: 01:51:53-Перевод: Профессиональный (дублированный) [Невафильм]
    Cубтитры: нет
    Оригинальная аудиодорожка: нет-Режиссер: Кенни Ортега / Kenny Ortega-В ролях: Дав Камерон, Кэмерон Бойс, Бу Бу Стюарт, София Карсон, Митчелл Хоуп-Описание: После прихода к власти молодой монарх выдает новый указ – «амнистию», по которой всем наследникам известных злодеев, которые находятся в заточении на острове, дается второй шанс. Всех отправляют в школу, в которой учатся дети Белоснежки, Рапунцель и других позитивных героев. Тут второму поколению предстоит определить для себя – продолжать дело родителей, или же начать все с чистого листа.-Семпл: Скачать-Качество видео: DVB
    Формат видео: TS-Видео: 720x576 (16:9) @ 1024x576, 25.000 fps, MPEG-2 Video, ~3100 Kbps, 0.299 bits/pixel
    Аудио: 48.0 KHz, MPEG-1 Audio layer 2, 2 ch, 192 Kbps


    Complete name : E:\Descendants.2015.DVB.Rus.ts
    Format : MPEG-TS
    File size : 2.60 GiB
    Duration : 1h 47mn
    Overall bit rate mode : Variable
    Overall bit rate : 3 466 Kbps
    Maximum Overall bit rate : 35.5 Mbps
    ID : 4113 (0x1011)
    Menu ID : 1 (0x1)
    Format : MPEG Video
    Format version : Version 2
    Format profile : Main@Main
    Format settings, BVOP : Yes
    Format settings, Matrix : Custom
    Format settings, GOP : Variable
    Format settings, picture st : Frame
    Codec ID : 2
    Duration : 1h 47mn
    Bit rate mode : Variable
    Bit rate : 3 100 Kbps
    Maximum bit rate : 3 350 Kbps
    Width : 720 pixels
    Height : 576 pixels
    Display aspect ratio : 16:9
    Active Format Description : Letterbox 16:9 image (top)
    Frame rate : 25.000 fps
    Standard : PAL
    Color space : YUV
    Chroma subsampling : 4:2:0
    Bit depth : 8 bits
    Scan type : Interlaced
    Scan order : Top Field First
    Compression mode : Lossy
    Bits/(Pixel*Frame) : 0.299
    Time code of first frame : 00:00:00:00
    Time code source : Group of pictures header
    GOP, Open/Closed : Open
    Stream size : 2.32 GiB (89%)
    ID : 4352 (0x1100)
    Menu ID : 1 (0x1)
    Format : MPEG Audio
    Format version : Version 1
    Format profile : Layer 2
    Mode : Joint stereo
    Mode extension : Intensity Stereo + MS Stereo
    Codec ID : 4
    Duration : 1h 47mn
    Bit rate mode : Constant
    Bit rate : 192 Kbps
    Channel(s) : 2 channels
    Sampling rate : 48.0 KHz
    Compression mode : Lossy
    Delay relative to video : 14ms
    Stream size : 147 MiB (6%)
    Language : Russian

    Скриншот c названием фильма


    Download .torrent

    Download free and at maximum speed!

    How to Download? · What is a torrent? · Ratings and Limitations

    The site does not extend and does not store electronic(digital) versions of products, and only gives access to a reference catalogue created by users on torrent-files which contain only lists of the hash-sums, the earnest entreaty, with complaints(abuse) to access directly to the user. Files for an exchange on tracker are given by users of a site, and the administration does not bear the responsibility for their maintenance. The request to not fill in the files protected by copyrights, and also files of the illegal maintenance!

    [Profile] [PM]
    Display posts from previous:    
    Reply to topic

    The time now is: Today 16:57

    All times are GMT + 3 Hours

    You cannot post new topics in this forum
    You cannot reply to topics in this forum
    You cannot edit your posts in this forum
    You cannot delete your posts in this forum
    You cannot vote in polls in this forum
    You cannot attach files in this forum
    You cannot download files in this forum