Register  ·  Log in
Forgot password?

  • Астрал 3 / Insidious: Chapter 3 (Ли Уоннелл / Leigh Whannell) [2015, Канада, США, ужасы, триллер, драма, HDRip] Dub

    Reply to topic
    Author Message


    Post 12-Oct-2015 00:03



    Астрал 3 / Insidious: Chapter 3-Страна: Канада, США
    Жанр: ужасы, триллер, драма
    Год выпуска: 2015
    Продолжительность: 01:37:21
    Перевод: Профессиональный (дублированный)
    Cубтитры: нет-Режиссер: Ли Уоннелл / Leigh Whannell-В ролях: Стефани Скотт, Лин Шэй, Дермот Малруни, Энгус Сэмпсон, Ли Уоннелл, Тейт Берни, Майкл Рид МакКей, Стив Култер, Хейли Кийоко, Корбетт Так.-Описание: История о том, как одаренный экстрасенс Элис Рейнер неохотно соглашается использовать свои способности для установления связи с мертвыми, чтобы помочь девочке-подростку, которая стала мишенью для опасной сверхъестественной сущности.-Download sample-Качество видео: HDRip (Scarabey)
    Формат видео: AVI
    Видео: 688x288 (2.35:1), 23.976 fps, XviD build 73 ~940 kbps avg, 0.20 bit/pixel
    Аудио: 48 kHz, MPEG Layer 3, 2 ch, ~128.00 kbps avg


    Format : AVI
    Format/Info : Audio Video Interleave
    File size : 750 MiB
    Duration : 1h 37mn
    Overall bit rate : 1 077 Kbps
    Writing application : VirtualDubMod | || (build 2550/release)
    Writing library : VirtualDubMod build 2550/release
    ID : 0
    Format : MPEG-4 Visual
    Format profile : Advanced Simple@L5
    Format settings, BVOP : Yes
    Format settings, QPel : No
    Format settings, GMC : No warppoints
    Format settings, Matrix : Custom
    Codec ID : XVID
    Codec ID/Hint : XviD
    Duration : 1h 37mn
    Bit rate : 940 Kbps
    Width : 688 pixels
    Height : 288 pixels
    Display aspect ratio : 2.35:1
    Frame rate : 23.976 fps
    Color space : YUV
    Chroma subsampling : 4:2:0
    Bit depth : 8 bits
    Scan type : Progressive
    Bits/(Pixel*Frame) : 0.198
    Stream size : 654 MiB (87%)
    Writing library : XviD 73
    ID : 1
    Format : MPEG Audio
    Format version : Version 1
    Format profile : Layer 3
    Codec ID : 55
    Codec ID/Hint : MP3
    Duration : 1h 37mn
    Bit rate mode : Constant
    Bit rate : 128 Kbps
    Channel(s) : 2 channels
    Sampling rate : 48.0 KHz
    Stream size : 89.1 MiB (12%)
    Alignment : Aligned on interleaves
    Interleave, duration : 42 ms (1.00 video frame)
    Interleave, preload duration : 504 ms
    Writing library : LAME3.99r
    Encoding settings : -m s -V 4 -q 2 -lowpass 17 -b 128


    Download .torrent

    Download free and at maximum speed!

    How to Download? · What is a torrent? · Ratings and Limitations

    The site does not extend and does not store electronic(digital) versions of products, and only gives access to a reference catalogue created by users on torrent-files which contain only lists of the hash-sums, the earnest entreaty, with complaints(abuse) to access directly to the user. Files for an exchange on tracker are given by users of a site, and the administration does not bear the responsibility for their maintenance. The request to not fill in the files protected by copyrights, and also files of the illegal maintenance!

    [Profile] [PM]
    Display posts from previous:    
    Reply to topic

    The time now is: Today 12:38

    All times are GMT + 3 Hours

    You cannot post new topics in this forum
    You cannot reply to topics in this forum
    You cannot edit your posts in this forum
    You cannot delete your posts in this forum
    You cannot vote in polls in this forum
    You cannot attach files in this forum
    You cannot download files in this forum