BitTorrentTracker PerecTracker.org
BitTorrentTracker PerecTracker.org
    
Регистрация  ·  Вход
 
 · 
Забыли пароль?

  • Правосудие Гуднайта 3: Червонная дама / Справедливый судья 3 / Goodnight for Justice: Queen of Hearts (Мартин Вуд / Martin Wood) [2013 г., США, Канада, Вестерн, DVDRip] AVO (Карповский)

    Ответить на тему
     
    Автор Сообщение

    Light

    Создавать темы 11-Окт-2015 23:03

           

    [Цитировать]

    Правосудие Гуднайта 3: Червонная дама / Справедливый судья 3 / Goodnight for Justice: Queen of Hearts
    Год выпуска: 2013
    Страна: США, Канада
    Жанр: Вестерн
    Продолжительность: 1:26:30
    Перевод: Авторский (одноголосый закадровый), Антон Карповский
    Cубтитры: нет
    Режиссер: Мартин Вуд / Martin Wood
    В ролях: Люк Перри /Luke Perry/, Рик Шродер /Rick Schroder/, Кэтрин Изабель /Katharine Isabelle/, Тед Манн /Ted Mann/, Джерри Вассерман /Jerry Wasserman/, Райан Роббинс /Ryan Robbins/
    Описание: Непревзойденный Люк Перри снова возвращается на беззаконную границу штата Вайоминг, в роли окружного судьи Джона Гуднайта. Человека, одержимо служащего соблюдению правосудия. Путешествуя по Дикому Западу, Джон приходит на помощь дилижансу, подвергшемуся атаке. Ему удаётся спасти лишь одну пассажирку, прекрасную Люси Трюффо, в исполнении Кэтрин Изабелль. Джон узнаёт, что она осуждённая мошенница, преследуемая состоятельным аристократом Сирилом Кноксом. Сможет ли Люси убедить Джона помочь ей выпутаться из этой криминальной истории? Сумеет ли справедливый судья направить преступницу на законопослушный путь?
    Качество видео: DVDRip
    Формат видео: AVI
    Видео кодек: XviD
    Аудио кодек: AC3
    Видео: 720x400, 23,976 fps, 2816 kbps
    Аудио: 48000Hz, DD 5.1, 384 kbps
    Скачать: SAMPLE 31.30MB
    Доп. информация: За рип спасибо Mister X.
    P.S.: Всех кто располагает переводами Антона Карповского попрошу в эту тему.

    MediaInfo

    Формат : AVI
    Формат/Информация : Audio Video Interleave
    Размер файла : 1,94 Гбайт
    Продолжительность : 1 ч. 26 м.
    Общий поток : 3209 Кбит/сек
    Программа кодирования : VirtualDubModRus 1.5.10.2 (build 2542/release)
    Библиотека кодирования : VirtualDubMod build 2542/release
    Видео
    Идентификатор : 0
    Формат : xvid
    Идентификатор кодека : xvid
    Продолжительность : 1 ч. 26 м.
    Битрейт : 2816 Кбит/сек
    Ширина : 720 пикселей
    Высота : 400 пикселей
    Соотношение сторон : 16:9
    Частота кадров : 23,976 кадра/сек
    Бит/(Пиксели*Кадры) : 0.408
    Размер потока : 1,70 Гбайт (88%)
    Аудио
    Идентификатор : 1
    Формат : AC-3
    Формат/Информация : Audio Coding 3
    Расширение режима : CM (complete main)
    Параметр Endianness формата : Big
    Идентификатор кодека : 2000
    Продолжительность : 1 ч. 26 м.
    Вид битрейта : Постоянный
    Битрейт : 384 Кбит/сек
    Каналы : 6 каналов
    Расположение каналов : Front: L C R, Side: L R, LFE
    Частота : 48,0 КГц
    Метод сжатия : С потерями
    Размер потока : 238 Мбайт (12%)
    Выравнивание : Разделение по промежуткам
    Продолжительность промежутка : 42 мс. (1,00 видеокадр)
    Время предзагрузки промежутка : 500 мс.

    Скриншоты

    Скачать .torrent

    Скачать торрент-файл бесплатно и на максимальной скорости!

    Как скачивать? · Что такое торрент? · Рейтинг и ограничения

    !ВНИМАНИЕ!
    Сайт не распространяет и не хранит электронные версии произведений, а занимается лишь лишь предоставлением доступа к создаваемому пользователями каталогу ссылок на торрент-файлы, которые содержат только списки хеш-сумм, убедительная просьба с жалобами обращаться напрямую к пользователю. Файлы для обмена на трекере предоставлены пользователями сайта, и администрация не несёт ответственности за их содержание. Просьба не заливать файлы, защищенные авторскими правами, а также файлы нелегального содержания!


    _________________
    [Профиль] [ЛС]
    Показать сообщения:    
    Ответить на тему

    Текущее время: Сегодня, в 20:01

    Часовой пояс: GMT + 2



    Вы не можете начинать темы
    Вы не можете отвечать на сообщения
    Вы не можете редактировать свои сообщения
    Вы не можете удалять свои сообщения
    Вы не можете голосовать в опросах
    Вы не можете прикреплять файлы к сообщениям
    Вы не можете скачивать файлы